<?xml version="1.0" standalone="no"?>
<!DOCTYPE svg PUBLIC "-//W3C//DTD SVG 1.1//EN" "http://www.w3.org/Graphics/SVG/1.1/DTD/svg11.dtd" >
<svg xmlns="http://www.w3.org/2000/svg">
<metadata>Generated by IcoMoon</metadata>
<defs>
<font id="icomoon" horiz-adv-x="1024">
<font-face units-per-em="1024" ascent="960" descent="-64" />
<missing-glyph horiz-adv-x="1024" />
<glyph unicode="&#x20;" horiz-adv-x="512" d="" />
<glyph unicode="&#xe900;" glyph-name="play" d="M286.379 864.085l528.384-416.085-528.725-416.085z" />
<glyph unicode="&#xe901;" glyph-name="activity-o" d="M512.341-23.381l161.109 635.563 89.088-253.611h260.096v83.968h-200.704l-161.792 458.752-157.355-621.568-146.432 453.632-116.053-290.816h-223.232v-83.968h279.552l51.2 128z" />
<glyph unicode="&#xe902;" glyph-name="bell" d="M419.84 268.8h40.96c0-28.277 22.923-51.2 51.2-51.2s51.2 22.923 51.2 51.2h40.96c0-50.899-41.261-92.16-92.16-92.16s-92.16 41.261-92.16 92.16zM778.24 320.017v-10.276c0-22.684-18.337-40.941-40.974-40.941h-450.532c-22.631 0-40.974 18.32-40.974 40.941v10.276c0 36.074 26.706 65.922 61.44 70.925v123.625c0 113.133 91.678 204.792 204.8 204.792s204.8-91.681 204.8-204.792v-123.623c34.781-4.992 61.44-34.818 61.44-70.928zM737.28 320.017c0 16.982-13.734 30.703-30.814 30.703-16.921 0-30.626 13.808-30.626 30.646v133.202c0 90.49-73.339 163.832-163.84 163.832-90.502 0-163.84-73.323-163.84-163.832v-133.202c0-16.914-13.775-30.646-30.626-30.646-17.023 0-30.814-13.764-30.814-30.703v-10.26c0.002 0.002 450.546 0.003 450.546 0.003 0.006 0 0.014 10.257 0.014 10.257z" />
<glyph unicode="&#xe903;" glyph-name="activity" d="M469.333 121.344c9.899-30.379 53.248-29.013 60.757 1.707l134.827 532.139 91.819-260.096c4.437-12.971 16.384-21.163 29.696-21.163h190.123c17.749 0 31.403 14.336 31.403 31.403 0 17.749-14.336 31.403-31.403 31.403h-167.253l-119.125 337.92c-10.24 29.696-52.907 27.648-60.416-3.072l-133.12-527.019-122.88 380.928c-9.216 28.331-48.469 29.696-59.392 2.048l-76.8-191.147h-190.464c-17.749 0-31.403-14.336-31.403-31.403 0-17.749 14.336-31.403 31.403-31.403h211.285c12.971 0 24.576 8.192 29.355 19.797l51.883 129.707 129.707-401.749z" />
<glyph unicode="&#xe904;" glyph-name="spotify" d="M0 448.009c0 282.763 229.235 511.991 511.998 511.991 282.773 0 512.002-229.229 512.002-511.991 0-282.793-229.229-512.009-512.002-512.009-282.763 0-511.998 229.216-511.998 512.009zM220.045 565.31c157.551 47.817 429.777 38.805 594.816-59.206 22.701-13.513 52.115-6.010 65.615 16.747 13.487 22.718 6.029 52.109-16.734 65.619-189.995 112.785-490.641 123.386-671.502 68.489-25.318-7.691-39.581-34.428-31.915-59.744 7.661-25.299 34.415-39.582 59.72-31.904zM754.547 347.791c18.765-11.537 43.33-5.645 54.91 13.143 11.537 18.746 5.63 43.324-13.133 54.878-158.033 97.12-389.205 124.45-575.159 68.019-21.075-6.421-32.979-28.674-26.62-49.781 6.414-21.073 28.711-32.971 49.816-26.594 162.782 49.412 372.599 24.907 510.187-59.665zM746.807 221.519c-9.201-15.089-28.845-19.814-43.878-10.62-120.23 73.483-271.563 90.076-449.783 49.37-17.173-3.936-34.291 6.825-38.206 23.991-3.937 17.173 6.788 34.293 23.998 38.212 195.034 44.582 362.327 25.397 497.28-57.067 15.046-9.19 19.785-28.847 10.59-43.887z" />
<glyph unicode="&#xe905;" glyph-name="view-o" d="M992.256 467.456c-47.104 61.44-211.968 245.76-480.256 245.76s-432.128-184.32-480.256-245.76c-9.216-11.264-9.216-27.648 0-38.912 47.104-61.44 211.968-245.76 480.256-245.76s432.128 184.32 480.256 245.76c8.192 11.264 8.192 27.648 0 38.912zM512 250.368c-109.568 0-197.632 88.064-197.632 197.632s88.064 197.632 197.632 197.632c109.568 0 197.632-88.064 197.632-197.632s-88.064-197.632-197.632-197.632zM512 574.976c-11.264 0-21.504-1.024-31.744-4.096 15.36-12.288 24.576-29.696 24.576-51.2 0-35.84-28.672-64.512-64.512-64.512-20.48 0-38.912 9.216-51.2 24.576-3.072-10.24-4.096-21.504-4.096-31.744 0-70.656 57.344-126.976 126.976-126.976s126.976 57.344 126.976 126.976c0 69.632-57.344 126.976-126.976 126.976z" />
<glyph unicode="&#xe906;" glyph-name="plus" d="M421.547 959.871v-421.547h-421.547v-180.565h421.547v-421.547h180.565v421.547h421.888v180.565h-421.547v421.547h-180.907z" />
<glyph unicode="&#xe907;" glyph-name="wechat" d="M943.445 184.491c37.547 45.397 58.368 102.4 59.051 161.451 0 118.784-86.357 221.184-209.92 266.24 0-1.365 0-3.072 0-4.779 0-18.773-1.707-37.547-5.12-55.979 93.184-39.253 155.989-116.395 155.989-205.483 0-67.584-37.205-131.755-102.4-176.469-56.32-37.205-122.539-57.003-190.464-55.979-122.197 0-227.328 60.075-271.019 144.725-22.187 0-44.373 1.707-66.219 4.779 44.032-120.491 177.835-207.531 337.237-207.531 60.757-0.341 121.173 12.971 176.128 38.912v0l175.787-101.376-59.051 191.488zM382.293 898.56c-194.219 0-351.573-130.389-351.573-291.157 0.341-59.051 21.504-116.395 59.051-161.792v0l-58.368-192.512 175.787 101.376c54.955-25.941 114.688-39.595 175.787-39.253 194.219 0 351.573 130.389 351.573 290.816s-158.037 292.523-352.256 292.523zM382.293 829.269c64.512 0.683 127.659-17.749 181.589-53.248 62.123-42.325 97.963-103.765 97.963-168.277 0-122.197-124.245-221.867-279.211-221.867s-279.211 98.987-279.211 221.525 124.928 221.867 278.869 221.867zM235.861 607.403c0-16.024-12.99-29.013-29.013-29.013s-29.013 12.99-29.013 29.013c0 16.024 12.99 29.013 29.013 29.013s29.013-12.99 29.013-29.013zM411.307 607.403c0-16.024-12.99-29.013-29.013-29.013s-29.013 12.99-29.013 29.013c0 16.024 12.99 29.013 29.013 29.013s29.013-12.99 29.013-29.013zM587.093 607.403c0-16.024-12.99-29.013-29.013-29.013s-29.013 12.99-29.013 29.013c0 16.024 12.99 29.013 29.013 29.013s29.013-12.99 29.013-29.013zM680.277 345.6c0-16.024-12.99-29.013-29.013-29.013s-29.013 12.99-29.013 29.013c0 16.024 12.99 29.013 29.013 29.013s29.013-12.99 29.013-29.013zM855.723 345.6c0-16.024-12.99-29.013-29.013-29.013s-29.013 12.99-29.013 29.013c0 16.024 12.99 29.013 29.013 29.013s29.013-12.99 29.013-29.013z" />
<glyph unicode="&#xe908;" glyph-name="comment" d="M512 576c-23.564 0-42.667-19.103-42.667-42.667s19.103-42.667 42.667-42.667c23.564 0 42.667 19.103 42.667 42.667v0c0 23.564-19.103 42.667-42.667 42.667v0zM810.667 874.667h-597.333c-70.692 0-128-57.308-128-128v0-426.667c0-70.692 57.308-128 128-128v0h494.507l157.867-158.293c7.709-7.648 18.326-12.374 30.047-12.374 0.087 0 0.173 0 0.26 0.001h-0.013c0.275-0.008 0.599-0.012 0.923-0.012 5.554 0 10.813 1.263 15.505 3.518l-0.215-0.093c15.59 6.527 26.363 21.621 26.453 39.242v682.679c0 70.692-57.308 128-128 128v0zM853.333 166.827l-97.707 98.133c-7.709 7.648-18.326 12.374-30.047 12.374-0.087 0-0.173 0-0.26-0.001h-511.987c-23.564 0-42.667 19.103-42.667 42.667v0 426.667c0 23.564 19.103 42.667 42.667 42.667v0h597.333c23.564 0 42.667-19.103 42.667-42.667v0zM341.333 576c-23.564 0-42.667-19.103-42.667-42.667s19.103-42.667 42.667-42.667c23.564 0 42.667 19.103 42.667 42.667v0c0 23.564-19.103 42.667-42.667 42.667v0zM682.667 576c-23.564 0-42.667-19.103-42.667-42.667s19.103-42.667 42.667-42.667c23.564 0 42.667 19.103 42.667 42.667v0c0 23.564-19.103 42.667-42.667 42.667v0z" />
<glyph unicode="&#xe909;" glyph-name="fire-o" d="M441.344 99.157c-101.717 123.221 124.587 221.184 48.469 283.989 295.936-120.832 118.443-424.277-48.469-283.989zM406.187 614.229c-510.293-476.501 287.744-885.077 406.187-376.149 68.949 296.277-276.821 403.797-201.728 637.269-172.715-65.195-40.96-270.677-60.416-357.717-24.235-108.885-220.16-47.104-144.043 96.597z" />
<glyph unicode="&#xe90a;" glyph-name="fire" d="M381.727 106.667c-95.594 30.827-150.576 86.313-164.946 166.457-21.885 122.059 69.023 199.395 69.023 330.101 28.024-27.768 42.007-71.582 42.007-112.472 79.18 79.995 118.771 193.744 118.771 341.247 109.666-58.732 178.685-150.888 207.055-276.468 15.936 28.413 18.858 66.791 8.768 115.134 140.261-53.699 263.65-456.566-37.456-564 51.835 178.774 15.271 313.354-109.693 403.739 16.033-75.413 0.866-147.85-45.503-217.31-3.646 54.679-13.313 97.037-29 127.075 0-35.172-13.931-70.247-41.793-105.225-3.491-4.383-6.99-8.788-10.498-13.215v0c-44.767-56.513-47.497-135.598-6.735-195.064z" />
<glyph unicode="&#xe90b;" glyph-name="lightning1" d="M761.937 898.314c-4.172-0.122-8.295-1.548-11.645-4.027l-438.272-324.675c-2.762-2.046-4.992-4.795-6.42-7.913s-2.052-6.598-1.793-10.015c0.258-3.417 1.398-6.765 3.28-9.635s4.5-5.255 7.539-6.867l188.378-99.881-284.045-405.885c-13.864-24.013 8.97-39.581 29.687-27.619l552.96 441.701c2.635 2.105 4.735 4.87 6.052 7.968 1.318 3.097 1.851 6.522 1.536 9.871-0.314 3.348-1.476 6.616-3.347 9.417s-4.449 5.129-7.431 6.712l-179.942 95.488 162.084 295.138c1.721 3.139 2.595 6.733 2.505 10.308-0.092 3.575-1.144 7.122-3.022 10.17s-4.576 5.592-7.736 7.293c-3.16 1.701-6.774 2.555-10.365 2.451z" />
<glyph unicode="&#xe90c;" glyph-name="love-full" d="M951.425 815.993c-48.385 47.246-115.234 70.86-200.576 70.86-23.617 0-47.721-4.095-72.287-12.281-24.576-8.192-47.439-19.244-68.562-33.148-21.151-13.9-39.329-26.954-54.578-39.141-15.231-12.191-29.712-25.146-43.424-38.856-13.718 13.71-28.195 26.665-43.428 38.856-15.243 12.187-33.428 25.232-54.576 39.141-21.143 13.91-44.002 24.954-68.572 33.148-24.568 8.184-48.667 12.281-72.285 12.281-85.336 0-152.189-23.619-200.568-70.86-48.379-47.236-72.571-112.756-72.571-196.565 0-25.525 4.483-51.816 13.432-78.853 8.949-27.048 19.146-50.098 30.572-69.142 11.424-19.042 24.38-37.619 38.856-55.715 14.477-18.097 25.056-30.562 31.715-37.425 6.665-6.849 11.905-11.807 15.713-14.849l356.566-344.003c6.859-6.863 15.239-10.296 25.142-10.296s18.289 3.433 25.144 10.281l355.999 342.864c87.24 87.23 130.855 172.946 130.855 257.137 0.002 83.809-24.194 149.329-72.571 196.565z" />
<glyph unicode="&#xe90d;" glyph-name="pause" d="M362.667-21.333h-298.667c-11.776 0-21.333 9.557-21.333 21.333v896c0 11.776 9.557 21.333 21.333 21.333h298.667c11.776 0 21.333-9.557 21.333-21.333v-896c0-11.776-9.557-21.333-21.333-21.333zM960-21.333h-298.667c-11.733 0-21.333 9.557-21.333 21.333v896c0 11.776 9.6 21.333 21.333 21.333h298.667c11.733 0 21.333-9.557 21.333-21.333v-896c0-11.776-9.6-21.333-21.333-21.333z" />
<glyph unicode="&#xe90e;" glyph-name="quote" d="M242.688 785.92c-119.808 0-217.088-97.28-217.088-218.112 0-113.664 87.040-205.824 197.632-216.064-22.528-40.96-63.488-84.992-133.12-126.976-19.456-11.264-31.744-31.744-31.744-53.248 0-44.032 45.056-74.752 86.016-56.32 118.784 53.248 316.416 183.296 316.416 452.608 0 120.832-97.28 218.112-218.112 218.112zM781.312 785.92c-120.832 0-218.112-97.28-218.112-218.112 0-113.664 87.040-205.824 197.632-216.064-22.528-40.96-63.488-84.992-133.12-126.976-19.456-11.264-31.744-31.744-31.744-53.248 0-44.032 45.056-74.752 86.016-56.32 117.76 53.248 315.392 182.272 315.392 452.608 1.024 120.832-96.256 218.112-216.064 218.112z" />
<glyph unicode="&#xe90f;" glyph-name="star-full" d="M512 119.751l236.089-142.791c43.236-26.169 96.142 12.516 84.764 61.44l-62.578 268.516 208.782 180.907c38.116 32.996 17.636 95.573-32.427 99.556l-274.773 23.324-107.52 253.724c-19.342 46.080-85.333 46.080-104.676 0l-107.52-253.156-274.773-23.324c-50.062-3.982-70.542-66.56-32.427-99.556l208.782-180.907-62.578-268.516c-11.378-48.924 41.529-87.609 84.764-61.44l236.089 142.222z" />
<glyph unicode="&#xe910;" glyph-name="star" d="M776.533 21.333c-8.533 0-12.8 0-21.333 4.267l-243.2 128-243.2-128c-12.8-8.533-29.867-4.267-46.933 4.267-12.8 8.533-21.333 25.6-17.067 42.667l46.933 273.067-196.267 187.733c-12.8 12.8-17.067 29.867-12.8 42.667 4.267 17.067 17.067 25.6 34.133 29.867l273.067 38.4 123.733 247.467c12.8 29.867 64 29.867 76.8 0l123.733-247.467 273.067-38.4c12.8 0 25.6-12.8 34.133-29.867 4.267-17.067 0-34.133-12.8-42.667l-196.267-192 46.933-273.067c4.267-17.067-4.267-34.133-17.067-42.667-8.533-4.267-17.067-4.267-25.6-4.267zM174.933 533.333l149.333-149.333c12.8-8.533 17.067-21.333 17.067-34.133l-34.133-209.067 187.733 98.133c12.8 8.533 25.6 8.533 38.4 0l187.733-98.133-38.4 209.067c-4.267 12.8 4.267 29.867 12.8 38.4l149.333 149.333-209.067 29.867c-12.8 0-25.6 12.8-34.133 21.333l-89.6 187.733-93.867-187.733c-4.267-12.8-17.067-21.333-29.867-21.333l-213.333-34.133z" />
<glyph unicode="&#xe911;" glyph-name="camera" d="M864 64h-704c-54.4 0-96 41.6-96 96v448c0 54.4 41.6 96 96 96h108.8l38.4 76.8c12.8 28.8 48 51.2 86.4 51.2h240c38.4 0 73.6-22.4 86.4-54.4l35.2-73.6h108.8c54.4 0 96-41.6 96-96v-448c0-54.4-41.6-96-96-96zM160 640c-19.2 0-32-12.8-32-32v-448c0-19.2 12.8-32 32-32h704c19.2 0 32 12.8 32 32v448c0 19.2-12.8 32-32 32h-128c-12.8 0-22.4 6.4-28.8 19.2l-44.8 92.8c-6.4 9.6-16 16-28.8 16h-240c-12.8 0-22.4-6.4-28.8-16l-48-96c-6.4-9.6-16-16-28.8-16h-128zM512 192c-124.8 0-224 99.2-224 224s99.2 224 224 224c124.8 0 224-99.2 224-224s-99.2-224-224-224zM512 576c-89.6 0-160-70.4-160-160s70.4-160 160-160 160 70.4 160 160-70.4 160-160 160zM160 608h96v-64h-96v64z" />
<glyph unicode="&#xe912;" glyph-name="comment-o" d="M341.333 490.667c-23.564 0-42.667-19.103-42.667-42.667s19.103-42.667 42.667-42.667c23.564 0 42.667 19.103 42.667 42.667v0c0 23.564-19.103 42.667-42.667 42.667v0zM512 490.667c-23.564 0-42.667-19.103-42.667-42.667s19.103-42.667 42.667-42.667c23.564 0 42.667 19.103 42.667 42.667v0c0 23.564-19.103 42.667-42.667 42.667v0zM682.667 490.667c-23.564 0-42.667-19.103-42.667-42.667s19.103-42.667 42.667-42.667c23.564 0 42.667 19.103 42.667 42.667v0c0 23.564-19.103 42.667-42.667 42.667v0zM512 874.667c-235.641 0-426.667-191.025-426.667-426.667v0c-0.002-0.474-0.003-1.036-0.003-1.598 0-102.317 36.415-196.128 96.992-269.181l-0.563 0.698-85.333-85.333c-7.601-7.7-12.296-18.286-12.296-29.968 0-5.971 1.227-11.656 3.442-16.817l-0.106 0.278c6.929-14.753 21.662-24.784 38.738-24.784 0.631 0 1.259 0.014 1.884 0.041l-0.089-0.003h384c235.641 0 426.667 191.025 426.667 426.667s-191.025 426.667-426.667 426.667v0zM512 106.667h-281.173l39.68 39.68c7.861 7.709 12.749 18.426 12.8 30.284v0.010c-0.172 11.712-5.037 22.255-12.793 29.86l-0.007 0.007c-61.849 61.783-100.108 147.17-100.108 241.493 0 188.513 152.82 341.333 341.333 341.333s341.333-152.82 341.333-341.333c0-188.419-152.667-341.181-341.051-341.333h-0.014z" />
<glyph unicode="&#xe913;" glyph-name="comments" d="M153.6 894.4h724.8c57.6 0 107.2-48 107.2-108.8v-528c0-60.8-48-108.8-107.2-108.8h-305.6l-310.4-144c-19.2-9.6-41.6 6.4-41.6 27.2v115.2h-67.2c-60.8 0-108.8 48-108.8 108.8v528c0 60.8 49.6 110.4 108.8 110.4zM878.4 835.2h-724.8c-27.2 0-51.2-22.4-51.2-51.2v-528c0-27.2 22.4-48 51.2-48h97.6c16 0 30.4-14.4 30.4-30.4v-102.4l270.4 128c4.8 1.6 9.6 4.8 14.4 4.8h312c27.2 0 48 20.8 48 48v528c0 28.8-20.8 51.2-48 51.2zM297.6 576c30.4 0 56-25.6 56-56s-25.6-56-56-56c-30.4 0-56 25.6-56 56s25.6 56 56 56zM515.2 576c32 0 56-25.6 56-56s-22.4-56-56-56c-30.4 0-56 25.6-56 56s25.6 56 56 56zM732.8 576c32 0 56-25.6 56-56s-22.4-56-56-56c-30.4 0-56 25.6-56 56s25.6 56 56 56z" />
<glyph unicode="&#xe914;" glyph-name="love" d="M951.427 815.997c-48.385 47.247-115.234 70.86-200.577 70.86-23.617 0-47.721-4.095-72.287-12.281-24.576-8.192-47.439-19.244-68.562-33.148-21.151-13.9-39.329-26.954-54.578-39.141-15.231-12.191-29.712-25.146-43.424-38.856-13.718 13.71-28.195 26.665-43.428 38.856-15.243 12.187-33.428 25.232-54.576 39.141-21.143 13.91-44.002 24.954-68.572 33.148-24.568 8.184-48.668 12.281-72.285 12.281-85.336 0-152.189-23.619-200.569-70.86-48.379-47.237-72.571-112.756-72.571-196.566 0-25.525 4.483-51.82 13.432-78.854 8.949-27.048 19.146-50.099 30.572-69.143 11.424-19.042 24.38-37.611 38.856-55.709 14.477-18.095 25.056-30.566 31.715-37.423 6.665-6.857 11.905-11.815 15.713-14.865l356.566-344.001c6.859-6.857 15.239-10.296 25.142-10.296s18.289 3.439 25.144 10.296l356 342.87c87.24 87.224 130.856 172.938 130.856 257.132 0.002 83.815-24.188 149.329-72.571 196.558zM843.426 416.013l-331.426-319.425-331.993 320.002c-71.24 71.222-106.854 138.849-106.854 202.85 0 30.853 4.095 58.094 12.281 81.708 8.192 23.617 18.668 42.385 31.429 56.289 12.763 13.908 28.285 25.232 46.57 34.001 18.295 8.76 36.198 14.667 53.719 17.713 17.521 3.042 36.184 4.565 55.997 4.565 19.806 0 41.144-4.852 64.001-14.569 22.853-9.713 43.9-21.904 63.136-36.569 19.24-14.675 35.716-28.387 49.436-41.144 13.712-12.769 25.136-24.476 34.281-35.144 6.853-8.384 16.194-12.575 27.998-12.575 11.809 0 21.139 4.191 28 12.575 9.143 10.668 20.575 22.38 34.287 35.144 13.714 12.757 30.192 26.463 49.424 41.144 19.24 14.665 40.287 26.856 63.152 36.569 22.849 9.715 44.192 14.569 64.001 14.569s38.466-1.523 55.995-4.565c17.527-3.044 35.43-8.953 53.719-17.713 18.287-8.766 33.809-20.099 46.568-34.001 12.761-13.904 23.241-32.672 31.433-56.289 8.178-23.613 12.273-50.855 12.273-81.708-0.004-64.001-35.806-131.816-107.428-203.427z" />
<glyph unicode="&#xe915;" glyph-name="musical-note" d="M973.879 734.444v196.553c0 9.227-4.506 18.025-11.802 23.389-7.51 5.364-17.166 7.081-25.964 4.292l-585.583-186.039c-12.016-3.862-20.17-15.020-20.17-27.681v-573.138c-30.685 21.243-69.952 32.83-111.151 32.83-43.559 0-84.973-13.089-116.516-36.693-33.903-25.535-52.572-60.082-52.572-97.633s18.668-72.098 52.572-97.633c31.543-23.604 72.742-36.693 116.516-36.693s84.973 13.089 116.516 36.693c33.903 25.535 52.572 60.082 52.572 97.633v456.622l527.647 167.8v-336.029c-30.685 21.243-69.952 32.83-111.151 32.83-43.559 0-84.973-13.089-116.516-36.693-33.903-25.535-52.572-60.082-52.572-97.633s18.668-72.098 52.572-97.633c31.543-23.604 72.742-36.693 116.516-36.693s84.973 13.089 116.516 36.693c33.903 25.535 52.572 60.082 52.572 97.633v477.007c0 0.215 0 0.215 0 0.215zM219.208-6.064c-60.296 0-111.151 34.976-111.151 76.39s50.855 76.39 111.151 76.39 111.151-34.976 111.151-76.39c0-41.628-50.855-76.39-111.151-76.39zM388.296 587.888v136.042l527.647 167.585v-136.042l-527.647-167.585zM805.006 180.833c-60.296 0-111.151 34.976-111.151 76.39s50.855 76.39 111.151 76.39 111.151-34.976 111.151-76.39c-0.215-41.414-51.070-76.39-111.151-76.39z" />
<glyph unicode="&#xe916;" glyph-name="shuffle" d="M391.486 243.542c-13.031 9.774-31.275 7.167-41.049-5.864-48.868-64.723-123.364-101.862-204.376-101.862h-80.795c-16.289 0-29.321-13.031-29.321-29.321s13.031-29.321 29.321-29.321h81.012c50.171 0 98.17 11.511 142.477 34.099 42.352 21.502 79.926 52.995 108.595 91.22 9.556 12.814 7.167 31.275-5.864 41.049zM474.236 655.77c5.43-4.127 11.728-6.081 18.027-6.081 8.688 0 17.375 3.909 23.239 11.294 48.868 62.985 122.496 99.039 201.987 99.039h170.495l-91.003-91.003c-11.511-11.511-11.511-29.972 0-41.483 5.647-5.647 13.249-8.688 20.633-8.688s14.986 2.823 20.633 8.688l141.174 141.174c11.511 11.511 11.511 29.972 0 41.483l-141.174 141.174c-11.511 11.511-29.972 11.511-41.483 0s-11.511-29.972 0-41.483l91.003-91.003h-170.495c-97.736 0-188.304-44.307-248.466-121.844-9.556-13.031-7.384-31.275 5.43-41.266zM838.465 268.302c-11.511 11.511-29.972 11.511-41.483 0s-11.511-29.972 0-41.483l91.003-91.003h-170.495c-140.957 0-255.633 114.677-255.633 255.633v112.939c0 173.318-140.957 314.275-314.275 314.275h-81.012c-16.289 0-29.321-13.031-29.321-29.321s13.031-29.321 29.321-29.321h81.012c140.957 0 255.633-114.677 255.633-255.633v-112.939c0-173.318 140.957-314.275 314.275-314.275h170.495l-91.003-91.003c-11.511-11.511-11.511-29.972 0-41.483 5.647-5.647 13.249-8.688 20.633-8.688s14.986 2.823 20.633 8.688l141.174 141.174c11.511 11.511 11.511 29.972 0 41.483l-140.957 140.957z" />
<glyph unicode="&#xe917;" glyph-name="time" d="M512 874.667c-235.642 0-426.667-191.025-426.667-426.667 0-235.639 191.025-426.667 426.667-426.667 235.639 0 426.667 191.027 426.667 426.667 0 235.642-191.027 426.667-426.667 426.667zM0 448c0 282.77 229.23 512 512 512s512-229.23 512-512c0-282.769-229.231-512-512-512s-512 229.231-512 512zM512 704c23.565 0 42.667-19.103 42.667-42.667v-192.828l197.321-157.854c18.402-14.72 21.385-41.57 6.665-59.972s-41.57-21.385-59.972-6.665l-213.333 170.667c-10.121 8.098-16.013 20.356-16.013 33.318v213.333c0 23.564 19.102 42.667 42.667 42.667z" />
<glyph unicode="&#xe918;" glyph-name="user-p" d="M853.333 21.333c-25.6 0-42.667 17.067-42.667 42.667v85.333c0 72.533-55.467 128-128 128h-341.333c-72.533 0-128-55.467-128-128v-85.333c0-25.6-17.067-42.667-42.667-42.667s-42.667 17.067-42.667 42.667v85.333c0 119.467 93.867 213.333 213.333 213.333h341.333c119.467 0 213.333-93.867 213.333-213.333v-85.333c0-25.6-17.067-42.667-42.667-42.667zM512 448c-119.467 0-213.333 93.867-213.333 213.333s93.867 213.333 213.333 213.333 213.333-93.867 213.333-213.333-93.867-213.333-213.333-213.333zM512 789.333c-72.533 0-128-55.467-128-128s55.467-128 128-128 128 55.467 128 128-55.467 128-128 128z" />
<glyph unicode="&#xe919;" glyph-name="user" d="M659.923 431.442c65.737 46.958 108.080 123.004 108.080 208.939 0 141.385-114.615 256-256 256s-256-114.615-256-256c0-85.935 42.343-161.981 107.303-208.412l0.777-0.528c-174.628-52.077-299.814-211.104-300.083-399.411v-0.031c0-17.673 14.327-32 32-32v0h832c17.673 0 32 14.327 32 32v0c-0.268 188.336-125.452 347.362-297.127 398.685l-2.949 0.757zM320 640c0 106.039 85.961 192 192 192s192-85.961 192-192c0-106.039-85.961-192-192-192v0c-105.988 0.125-191.875 86.012-192 191.988v0.012zM129.44 64c17.15 180.044 167.502 319.78 350.537 320h64.023c183.058-0.22 333.41-139.956 350.45-318.579l0.11-1.421z" />
<glyph unicode="&#xe91a;" glyph-name="video" d="M981.333 192c-8.533 0-17.067 4.267-25.6 8.533l-298.667 213.333c-8.533 8.533-17.067 21.333-17.067 34.133s8.533 25.6 17.067 34.133l298.667 213.333c12.8 8.533 29.867 8.533 42.667 4.267 17.067-8.533 25.6-21.333 25.6-38.4v-426.667c0-17.067-8.533-29.867-21.333-38.4-8.533-4.267-12.8-4.267-21.333-4.267zM755.2 448l183.467-132.267v264.533l-183.467-132.267zM597.333 106.667h-469.333c-72.533 0-128 55.467-128 128v426.667c0 72.533 55.467 128 128 128h469.333c72.533 0 128-55.467 128-128v-426.667c0-72.533-55.467-128-128-128zM128 704c-25.6 0-42.667-17.067-42.667-42.667v-426.667c0-25.6 17.067-42.667 42.667-42.667h469.333c25.6 0 42.667 17.067 42.667 42.667v426.667c0 25.6-17.067 42.667-42.667 42.667h-469.333z" />
<glyph unicode="&#xe91b;" glyph-name="view" d="M1014.836 477.236c-7.902 11.348-196.83 277.964-502.836 277.964s-494.934-266.616-502.836-277.964c-12.22-17.578-12.22-40.892 0-58.47 7.902-11.35 196.83-277.966 502.836-277.966s494.934 266.616 502.836 277.964c12.22 17.58 12.22 40.892 0 58.472zM512 192c-282.76 0-460.8 256-460.8 256s178.040 256 460.8 256 460.8-256 460.8-256-178.040-256-460.8-256zM512 652.8c-113.1 0-204.8-91.682-204.8-204.8s91.682-204.8 204.8-204.8c113.118 0 204.8 91.682 204.8 204.8s-91.7 204.8-204.8 204.8zM512 294.4c-84.702 0-153.6 68.898-153.6 153.6s68.898 153.6 153.6 153.6c84.702 0 153.6-68.898 153.6-153.6s-68.898-153.6-153.6-153.6z" />
<glyph unicode="&#xe91c;" glyph-name="bag" d="M935.275-21.228l-62.311 693.927c-1.701 18.951-17.583 33.466-36.607 33.466h-128.498v57.954c0 108.009-87.867 195.881-195.871 195.881-107.999 0-195.856-87.872-195.856-195.881v-57.954h-128.586c-19.024 0-34.907-14.516-36.607-33.466l-62.556-696.656c-0.921-10.281 2.519-20.47 9.483-28.085s16.809-11.953 27.125-11.953h773.928c0.029 0 0.069 0 0.098 0 20.303 0 36.754 16.456 36.754 36.754-0.005 2.044-0.172 4.058-0.495 6.013zM389.64 764.119c0 67.476 54.886 122.372 122.353 122.372 67.471 0 122.362-54.896 122.362-122.372v-57.954h-244.715v57.954zM165.194 9.509l55.955 623.148h94.983v-65.727c0-20.298 16.451-36.754 36.754-36.754s36.754 16.456 36.754 36.754v65.727h244.715v-65.727c0-20.298 16.451-36.754 36.754-36.754s36.754 16.456 36.754 36.754v65.727h94.895l55.955-623.148h-693.52z" />
<glyph unicode="&#xe91d;" glyph-name="cart" d="M469.333 64c0-47.128-38.205-85.333-85.333-85.333s-85.333 38.205-85.333 85.333c0 47.128 38.205 85.333 85.333 85.333s85.333-38.205 85.333-85.333zM938.667 64c0-47.128-38.205-85.333-85.333-85.333s-85.333 38.205-85.333 85.333c0 47.128 38.205 85.333 85.333 85.333s85.333-38.205 85.333-85.333zM409.6 234.667c-59.733 0-110.933 42.667-123.733 102.4l-72.533 358.4c0 0 0 4.267 0 4.267l-34.133 174.933h-136.533c-25.6 0-42.667 17.067-42.667 42.667s17.067 42.667 42.667 42.667h170.667c21.333 0 38.4-12.8 42.667-34.133l34.133-179.2h691.2c12.8 0 25.6-4.267 34.133-17.067 8.533-8.533 8.533-21.333 8.533-34.133l-68.267-358.4c-12.8-59.733-68.267-102.4-128-102.4h-418.133c4.267 0 0 0 0 0zM307.2 661.333l59.733-307.2c4.267-21.333 21.333-34.133 42.667-34.133h413.867c21.333 0 38.4 12.8 42.667 34.133l64 307.2h-622.933z" />
<glyph unicode="&#xe91e;" glyph-name="moon" d="M516.267 21.333c-12.8 0-25.6 0-38.4 0-234.667 21.333-405.333 230.4-384 465.067 17.067 204.8 179.2 366.933 384 384 17.067 0 34.133-8.533 42.667-21.333s8.533-34.133-4.267-46.933c-85.333-115.2-59.733-273.067 55.467-358.4 89.6-68.267 213.333-68.267 302.933 0 12.8 8.533 29.867 12.8 46.933 4.267 12.8-8.533 21.333-25.6 21.333-42.667-8.533-115.2-64-217.6-153.6-290.133-81.067-59.733-174.933-93.867-273.067-93.867zM396.8 772.267c-123.733-42.667-213.333-153.6-221.867-290.133-17.067-187.733 119.467-354.133 307.2-371.2 89.6-8.533 179.2 17.067 247.467 76.8 46.933 38.4 81.067 89.6 102.4 145.067-106.667-38.4-226.133-21.333-320 46.933-119.467 93.867-166.4 251.733-115.2 392.533z" />
<glyph unicode="&#xe91f;" glyph-name="search" d="M1011.52 8.8l-254.72 254.72c60.059 73.019 96.473 167.46 96.473 270.407 0 235.936-191.264 427.2-427.2 427.2s-427.2-191.264-427.2-427.2c0-235.936 191.264-427.2 427.2-427.2 102.946 0 197.388 36.414 271.147 97.064l-0.74-0.591 254.72-254.72c7.521-6.742 17.511-10.865 28.465-10.865 23.594 0 42.72 19.126 42.72 42.72 0 10.953-4.122 20.944-10.9 28.505l0.035-0.040zM426.72 192c-0.048 0-0.104 0-0.16 0-188.572 0-341.44 152.868-341.44 341.44s152.868 341.44 341.44 341.44c188.572 0 341.44-152.868 341.44-341.44 0-0.056 0-0.113 0-0.169v0.009c-0.273-188.374-152.906-341.007-341.254-341.28h-0.026z" />
<glyph unicode="&#xe920;" glyph-name="sun" d="M512 224.943c123.039 0 222.264 100.019 222.264 222.264s-100.019 222.264-222.264 222.264-222.264-100.019-222.264-222.264 99.225-222.264 222.264-222.264zM512 605.172c87.318 0 157.966-70.648 157.966-157.966s-70.648-157.966-157.966-157.966-157.966 70.648-157.966 157.966c0 87.318 70.648 157.966 157.966 157.966zM544.546 772.664v102.4c0 18.257-14.288 32.546-32.546 32.546s-32.546-14.288-32.546-32.546v-102.4c0-18.257 14.288-32.546 32.546-32.546s32.546 14.288 32.546 32.546zM479.454 121.749v-102.4c0-18.257 14.288-32.546 32.546-32.546s32.546 14.288 32.546 32.546v102.4c0 18.257-14.288 32.546-32.546 32.546s-32.546-14.288-32.546-32.546zM765.222 654.388l72.236 72.236c12.701 12.701 12.701 33.34 0 46.040s-33.34 12.701-46.040 0l-72.236-72.236c-12.701-12.701-12.701-33.34 0-46.040 6.35-6.35 14.288-9.526 23.020-9.526s16.67 3.175 23.020 9.526zM186.543 121.749c6.35-6.35 14.288-9.526 23.020-9.526 7.938 0 16.67 3.175 23.020 9.526l72.236 72.236c12.701 12.701 12.701 33.34 0 46.040s-33.34 12.701-46.040 0l-72.236-72.236c-12.701-12.701-12.701-33.34 0-46.040zM972.403 447.206c0 18.257-14.288 32.546-32.546 32.546h-102.4c-18.257 0-32.546-14.288-32.546-32.546s14.288-32.546 32.546-32.546h102.4c17.464 0 32.546 14.288 32.546 32.546zM84.143 414.66h102.4c18.257 0 32.546 14.288 32.546 32.546s-14.288 32.546-32.546 32.546h-102.4c-18.257 0-32.546-14.288-32.546-32.546s15.082-32.546 32.546-32.546zM814.437 112.223c7.938 0 16.67 3.175 23.020 9.526 12.701 12.701 12.701 33.34 0 46.040l-72.236 72.236c-12.701 12.701-33.34 12.701-46.040 0s-12.701-33.34 0-46.040l72.236-72.236c6.35-6.35 15.082-9.526 23.020-9.526zM304.819 654.388c12.701 12.701 12.701 33.34 0 46.040l-72.236 72.236c-12.701 12.701-33.34 12.701-46.040 0s-12.701-33.34 0-46.040l72.236-72.236c6.35-6.35 14.288-9.526 23.020-9.526s16.67 3.175 23.020 9.526z" />
<glyph unicode="&#xe921;" glyph-name="right-arrow" d="M743.156 728.843l-45.612-45.614 202.973-202.975h-900.517v-64.509h900.517l-202.973-202.973 45.612-45.614 280.844 280.844z" />
<glyph unicode="&#xe922;" glyph-name="exchange-2" d="M105.941 279.862c-44.91 108.426-44.913 227.851 0 336.276 37.734 91.094 103.377 165.249 187.698 213.267v-181.249h72.495v275.468h-275.47v-72.495h105.734c-176.404-138.136-247.265-382.141-157.434-599.012 34.234-82.649 89.579-155.040 160.054-209.35 68.324-52.653 149.516-87.479 234.791-100.712l11.118 71.639c-153.068 23.752-279.789 123.253-338.985 266.167zM984.761 252.118c52.319 126.315 52.319 265.447 0 391.761-34.234 82.649-89.579 155.040-160.054 209.348-68.326 52.655-149.518 87.482-234.793 100.714l-11.116-71.639c153.065-23.752 279.786-123.253 338.983-266.167 44.91-108.426 44.91-227.851 0-336.276-37.731-91.094-103.377-165.249-187.696-213.267v181.249h-72.495v-275.468h275.468v72.495h-105.419c68.756 53.687 122.833 124.469 157.123 207.25z" />
<glyph unicode="&#xe923;" glyph-name="crossroads" d="M856.378 615.621l-44.112-44.112 92.357-92.355h-361.47v361.468l92.357-92.357 44.112 44.114-167.62 167.62-167.622-167.62 44.112-44.114 92.276 92.278v-361.389h-361.387l92.355 92.355-44.112 44.112-167.622-167.62 167.622-167.622 44.112 44.112-92.276 92.278h361.308v-361.31l-92.276 92.276-44.112-44.112 167.622-167.622 167.62 167.622-44.112 44.112-92.357-92.355v361.389h361.391l-92.278-92.278 44.112-44.112 167.62 167.622z" />
<glyph unicode="&#xe924;" glyph-name="compress" d="M1024 896.66l-63.34 63.34-341.010-341.013v187.463h-89.577v-340.377h340.377v89.577h-187.46zM153.547 339.394h186.511l-340.057-340.054 63.34-63.34 341.007 341.007v-188.413h89.577v340.377h-340.377z" />
<glyph unicode="&#xe925;" glyph-name="left-arrow" d="M1024 480.253h-900.515l202.973 202.975-45.614 45.614-280.844-280.842 280.844-280.846 45.614 45.616-202.973 202.973h900.515z" />
<glyph unicode="&#xe926;" glyph-name="up-chevron-1" d="M512 729.867l-512-510.331 53.229-53.402 458.771 457.278 458.774-457.278 53.226 53.402z" />
<glyph unicode="&#xe927;" glyph-name="right-chevron-2" d="M407.732 960l-53.402-53.226 457.281-458.774-457.281-458.774 53.402-53.226 510.334 512zM159.334 960l-53.402-53.226 457.281-458.774-457.281-458.774 53.402-53.226 510.334 512z" />
<glyph unicode="&#xe928;" glyph-name="right-chevron-1" d="M283.533 960l-53.402-53.226 457.281-458.774-457.281-458.774 53.402-53.226 510.334 512z" />
<glyph unicode="&#xe929;" glyph-name="left-chevron-2" d="M669.668 906.774l-53.402 53.226-510.334-512 510.334-512 53.402 53.226-457.278 458.774zM918.065 906.774l-53.402 53.226-510.334-512 510.334-512 53.402 53.226-457.278 458.774z" />
<glyph unicode="&#xe92a;" glyph-name="down-chevron-1" d="M970.771 729.867l-458.773-457.277-458.77 457.277-53.229-53.402 511.999-510.332 512.001 510.332z" />
<glyph unicode="&#xe92b;" glyph-name="left-chevron-1" d="M793.867 906.774l-53.402 53.226-510.334-512 510.334-512 53.402 53.226-457.278 458.774z" />
<glyph unicode="&#xe92c;" glyph-name="zerply" d="M871.133 188.212c-5.414 1.929-11.433 0.899-15.9-2.699-25.542-20.577-58.696-31.016-98.535-31.016-24.026 0-50.133 3.789-77.598 11.271-59.925 20.158-157.135 83.211-158.371 84.013-50.668 31.66-98.188 48.799-141.417 51.035 0.099 0.446 0.211 0.839 0.344 1.183 0.922 2.484 445.179 512.811 446.488 523.848 3.221 28.053 6.448 56.106 9.729 84.132 1.43 12.362-2.841 20.088-6.676 24.396-5.444 6.111-13.313 9.342-22.757 9.342-2.227 0-4.199-0.182-5.715-0.393-0.836-0.040-1.675-0.142-2.507-0.314-91.4-18.575-178.72-26.124-259.4-22.43-47.332 2.18-97.168 6.594-141.041 23.953-1.711 0.793-10.161 5.064-19.028 9.94-0.129 0.069-0.251 0.139-0.383 0.208-16.137 8.328-32.982 6.739-45.191-3.786-0.763-0.657-1.463-1.387-2.101-2.174-1.308-1.635-2.653-3.247-3.991-4.866-2.478-2.983-5.038-6.065-7.647-9.554-19.95-27.336-47.005-69.164-51.689-116.549-1.397-13.488-1.85-32.298 3.736-46.096 0.063-0.165 0.122-0.327 0.188-0.489 0.35-0.892 1.411-3.32 3.581-6.594 0.069-0.102 0.139-0.208 0.208-0.311 0.244-0.393 0.618-0.955 1.11-1.592 12.097-16.458 45.749-43.662 135.858-43.662 28.228 0 60.149 2.706 95.295 8.070-119.017-140.393-237.997-280.823-356.925-421.266-0.268-0.274-0.532-0.562-0.783-0.859-10.105-11.912-11.975-28.453-12.246-31.647-0.046-0.469-0.063-0.935-0.063-1.407v-81.067c0-0.928-0.050-6.395-0.099-12.418l-0.007-0.786c-0.010-1.057 0.083-2.121 0.277-3.161 4.575-24.597 19.708-29.292 26.001-30.17 0.756-0.102 1.52-0.159 2.279-0.159h30.431c77.38 0 137.189-2.593 202.462-36.186 28.172-14.472 53.529-33.639 80.37-53.926 21.978-16.613 44.706-33.791 69.128-48.148 49.981-29.434 108.515-61.457 170.696-68.824 5.93-0.7 11.846-1.054 17.601-1.054 0.007 0 0.007 0 0.007 0 40.639 0 76.323 17.528 103.177 50.685 38.224 47.19 55.389 125.072 41.729 189.393-1.193 5.613-5.216 10.208-10.624 12.13z" />
<glyph unicode="&#xe92d;" glyph-name="youtube" d="M984.087 746.463c-36.963 43.94-105.208 61.863-235.54 61.863h-473.105c-133.315 0-202.716-19.079-239.54-65.86-35.903-45.611-35.903-112.815-35.903-205.827v-177.281c0-180.194 42.598-271.684 275.443-271.684h473.108c113.023 0 175.652 15.816 216.17 54.592 41.551 39.764 59.28 104.689 59.28 217.091v177.281c0 98.089-2.778 165.69-39.913 209.824zM657.411 423.523l-214.835-112.28c-4.803-2.51-10.055-3.756-15.301-3.756-5.939 0-11.865 1.599-17.114 4.776-9.883 5.989-15.918 16.701-15.918 28.256v223.84c0 11.535 6.018 22.237 15.882 28.229 9.867 5.992 22.138 6.402 32.375 1.083l214.835-111.557c10.93-5.675 17.794-16.959 17.811-29.27 0.013-12.321-6.821-23.621-17.735-29.323z" />
<glyph unicode="&#xe92e;" glyph-name="yandex" d="M726.989 960h-145.491c-147.402 0-296.131-108.845-296.131-352.013 0-125.955 53.386-224.054 151.242-279.843l-179.11-324.182c-8.49-15.331-8.71-32.707-0.592-46.48 7.926-13.45 22.416-21.482 38.758-21.482h90.595c20.582 0 36.634 9.949 44.326 27.376l167.933 328.464h12.256v-314.902c0-22.192 18.726-40.938 40.89-40.938h79.152c24.854 0 42.211 17.357 42.211 42.208v936.986c0.003 26.381-18.928 44.806-46.038 44.806zM610.778 437.747h-21.619c-83.83 0-133.878 68.429-133.878 183.046 0 142.518 63.222 193.296 122.39 193.296h33.107v-376.342z" />
<glyph unicode="&#xe92f;" glyph-name="yahoo" d="M1009.566 805.819h-402.578c-4.072 0-7.954-1.718-10.69-4.732-2.736-3.016-4.075-7.041-3.685-11.098l7.849-81.385c0.686-7.104 6.456-12.641 13.584-13.032l84.1-4.627-161.472-224.047-176.088 350.819 127.127 4.86c7.688 0.292 13.792 6.552 13.891 14.243l0.928 72.784c0.045 3.864-1.453 7.584-4.165 10.332-2.712 2.745-6.411 4.293-10.275 4.293h-473.652c-7.978 0-14.44-6.462-14.44-14.443v-81.117c0-7.894 6.34-14.326 14.231-14.44l133.834-1.927 254.514-448.977-1.137-280.41-176.959-7.262c-7.635-0.31-13.7-6.519-13.846-14.153l-1.432-75.012c-0.075-3.878 1.417-7.62 4.138-10.391 2.712-2.766 6.423-4.323 10.302-4.323h553.525c3.962 0 7.751 1.626 10.478 4.499 2.727 2.87 4.156 6.737 3.947 10.693l-3.867 74.264c-0.385 7.384-6.28 13.282-13.67 13.667l-152.247 7.984-22.164 273.139 273.312 329.323 111.279 5.060c6.125 0.283 11.409 4.404 13.175 10.278l25.819 86.036c0.495 1.459 0.77 3.031 0.77 4.663 0 7.972-6.456 14.44-14.434 14.44z" />
<glyph unicode="&#xe930;" glyph-name="xing" d="M941.821 950.002c-7.742 12.107-23.288 9.95-80.915 9.685-34.574-0.164-68.095 0.726-85.028-0.211-15.208-0.842-26.171-8.608-34.922-19.345l-151.388-268.281c-62.469-109.474-125.262-218.915-181.928-322.408l218.342-396.256c4.938-8.546 10.199-9.838 15.553-11.487 24.719-7.609 60.847-5.398 99.906-5.398 33.17 0 76.287-0.6 83.396 14.881 3.554 7.746 0.443 18.142-4.498 28.583 0 0-27.316 49.264-63.11 114.323 16.619-30.045 33.358-60.234 50.198-90.657l-189.619 347.601c4.273-8.134 8.594-16.241 12.898-24.358-4.6 8.638-8.925 16.803-12.898 24.358l143.575 255.301c49.799 87.628 99.735 175.457 148.655 264.342l0.184 0.331 0.048 0.078c-0.014-0.020-0.024-0.041-0.034-0.058l33.306 59.228c4.566 9.426 1.772 14.271-1.721 19.747zM357.051 706.614c-12.506 21.785-21.956 50.188-50.566 50.576-50.57 0-101.16 0-151.726 0-8.277-1.186-15.702-3.268-17.386-11.061-2.706-16.421 11.279-38.977 18.987-52.171 17.931-30.798 81.058-131.133 80.574-142.225-0.314-7.436-99.221-176.292-142.215-252.865-6.396-11.368-20.139-31.855-15.818-41.089 4.522-9.661 13.501-13.263 18.96-12.649 51.101 0 102.213 0 153.321 0 31.32 3.813 32.71 20.381 61.614 72.706 44.248 80.1 91.424 161.489 132.766 235.479-25.554 47.482-59.528 102.812-88.51 153.3z" />
<glyph unicode="&#xe931;" glyph-name="wordpress" d="M0.017 448.017c0-202.639 117.767-377.798 288.573-460.773l-244.238 669.129c-28.399-63.672-44.336-134.134-44.336-208.357zM857.631 473.842c0 63.297-22.736 107.1-42.213 141.196-25.948 42.196-50.275 77.882-50.275 120.081 0 47.063 35.666 90.866 85.961 90.866 2.28 0 4.441-0.276 6.632-0.416-91.075 83.463-212.449 134.431-345.737 134.431-178.869 0-336.224-91.785-427.779-230.752 12.032-0.396 23.357-0.642 32.956-0.642 53.538 0 136.465 6.509 136.465 6.509 27.59 1.625 30.833-38.932 3.263-42.196 0 0-27.747-3.246-58.583-4.854l186.433-554.592 112.049 336.032-79.763 218.563c-27.59 1.608-53.692 4.854-53.692 4.854-27.59 1.638-24.364 43.82 3.243 42.196 0 0 84.535-6.509 134.844-6.509 53.542 0 136.465 6.509 136.465 6.509 27.59 1.625 30.853-38.932 3.263-42.196 0 0-27.778-3.246-58.58-4.854l185.013-550.359 51.070 170.612c25.962 66.54 38.963 121.702 38.963 165.519zM520.998 403.231l-153.627-446.375c45.872-13.486 94.385-20.855 144.63-20.855 59.634 0 116.818 10.291 170.028 29.024-1.348 2.195-2.625 4.519-3.659 7.059l-157.372 431.148zM961.277 693.63c2.208-16.295 3.454-33.785 3.454-52.64 0-51.934-9.742-110.339-38.953-183.375l-156.372-452.127c152.228 88.747 254.577 253.648 254.577 442.525 0 89.023-22.757 172.708-62.706 245.617z" />
<glyph unicode="&#xe932;" glyph-name="wikipedia" d="M998.031 811.129h-214.649c-14.283 0-25.969-11.686-25.969-25.969v-32.613c0-14.283 11.686-25.969 25.969-25.969h54.407c0.146-0.133-164.501-431.291-164.501-431.291l-88.702 199.484c0 0 116.472 231.181 116.891 231.811h24.556c14.283 0 25.969 11.686 25.969 25.969v32.61c0 14.283-11.686 25.969-25.969 25.969h-159.466c-14.283 0-25.969-11.686-25.969-25.969v-32.613c0-14.283 11.686-25.969 25.969-25.969h22.232c-0.974-3.181-53.739-120.247-53.739-120.247s-50.097 112.229-53.297 120.247h5.577c14.286 0 25.969 11.686 25.969 25.969v32.613c0 14.283-11.683 25.969-25.969 25.969h-169.201c-14.283 0-25.969-11.686-25.969-25.969v-32.613c0-14.283 11.686-25.969 25.969-25.969h22.658c4.415-6.583 116.245-251.654 124.788-272.367l-72.881-159.693c-41.839 97.554-142.145 332.735-176.135 423.822-1.24 3.243-2.142 5.937-2.844 8.239h47.029c14.283 0 25.969 11.686 25.969 25.969v32.613c0 14.283-11.686 25.969-25.969 25.969h-234.788c-14.283 0-25.969-11.686-25.969-25.969v-32.613c0-14.283 11.686-25.969 25.969-25.969h40.884c2.25-2.535 93.376-224.235 137.607-327.93 40.868-95.798 83.122-194.855 110.473-265.768 0.052-0.14 0.107-0.276 0.162-0.412 4.791-11.77 19.363-47.594 51.216-47.594 27.332 0 44.442 26.686 54.936 46.756 0.094 0.182 0.195 0.373 0.286 0.562 22.005 44.887 61.756 133.42 92.954 203.729 40.991-98.778 69.69-166.708 85.43-202.23 5.203-11.832 21.034-47.84 52.674-47.844h0.006c30.756 0 47.24 34.545 52.654 45.893 0.198 0.415 0.38 0.834 0.558 1.259 55.462 135.491 218.291 545.082 219.931 549.205 0.123 0.315 0.243 0.63 0.354 0.951 5.655 16.159 13.173 28.267 22.878 36.927 2.892 2.555 6.531 4.704 10.8 6.499h38.258c14.283 0 25.969 11.686 25.969 25.969v32.61c0 14.283-11.686 25.969-25.969 25.969z" />
<glyph unicode="&#xe933;" glyph-name="vk" d="M881.297 369.286c33.967-33.163 69.819-64.365 100.284-100.873 13.458-16.223 26.199-32.965 35.946-51.792 13.811-26.764 1.302-56.216-22.696-57.814l-149.179 0.067c-38.476-3.193-69.169 12.297-94.978 38.604-20.654 21.038-39.781 43.428-59.641 65.176-8.142 8.889-16.664 17.253-26.845 23.864-20.365 13.219-38.042 9.171-49.679-12.068-11.853-21.603-14.541-45.524-15.705-69.6-1.598-35.128-12.216-44.363-47.502-45.972-75.41-3.556-146.979 7.853-213.463 45.894-58.615 33.537-104.069 80.881-143.631 134.48-77.029 104.368-136.017 219.052-189.034 336.948-11.934 26.562-3.206 40.821 26.101 41.325 48.667 0.945 97.326 0.878 146.050 0.067 19.78-0.289 32.874-11.634 40.511-30.32 26.33-64.742 58.548-126.338 98.988-183.432 10.77-15.201 21.751-30.401 37.389-41.1 17.3-11.846 30.472-7.92 38.61 11.352 5.164 12.22 7.425 25.381 8.589 38.469 3.856 45.026 4.364 89.975-2.399 134.843-4.152 28.002-19.924 46.13-47.866 51.429-14.258 2.702-12.136 8.007-5.232 16.146 11.991 14.036 23.268 22.774 45.75 22.774h168.595c26.542-5.238 32.437-17.162 36.070-43.869l0.145-187.275c-0.289-10.339 5.164-41.019 23.787-47.862 14.904-4.872 24.729 7.052 33.671 16.503 40.367 42.843 69.176 93.474 94.914 145.902 11.422 23.053 21.243 46.994 30.761 70.916 7.052 17.751 18.117 26.485 38.112 26.098l162.263-0.145c4.811 0 9.679-0.071 14.339-0.868 27.343-4.66 34.835-16.422 26.391-43.122-13.306-41.891-39.196-76.8-64.51-111.871-27.060-37.443-56.001-73.604-82.836-111.269-24.655-34.395-22.696-51.732 7.93-81.604v0z" />
<glyph unicode="&#xe934;" glyph-name="vimeo" d="M1019.645 725.23c7.639 42.875 7.468 86.962-19.012 120.303-36.946 46.749-115.586 48.469-169.459 40.219-43.827-6.7-192.065-72.103-242.508-228.68 89.368 6.793 136.206-6.441 127.608-104.834-3.601-41.168-24.399-86.269-47.606-129.506-26.819-49.845-77.084-147.719-142.999-77.169-59.372 63.495-54.914 184.932-68.489 265.801-7.561 45.37-15.555 101.912-30.42 148.579-12.81 40.131-42.186 88.515-78.111 99.001-38.584 11.339-86.289-6.359-114.303-22.863-89.204-52.419-157.188-127.007-234.347-188.54v0c12.561-26.911 19.412-44.346 41.926-47.613 53.115-7.823 103.735 49.5 139.046-10.141 21.484-36.437 28.194-76.394 41.94-115.682 18.388-52.32 32.567-109.295 47.606-169.459 25.436-101.912 56.723-254.192 144.808-291.493 44.94-19.084 112.494 6.448 146.695 26.73 92.638 54.822 164.827 134.308 226.615 215.177 141.275 191.39 219.222 408.205 231.008 470.168z" />
<glyph unicode="&#xe935;" glyph-name="viber" d="M875.949 530.292c1.231 144.371-121.732 276.722-274.101 295.023-3.031 0.359-6.332 0.906-9.827 1.485-7.543 1.25-15.344 2.535-23.215 2.535-31.229 0-39.577-21.936-41.774-35.020-2.137-12.72-0.099-23.403 6.049-31.763 10.342-14.063 28.538-16.559 43.154-18.559 4.284-0.592 8.326-1.142 11.709-1.902 136.898-30.59 182.994-78.683 205.522-214.417 0.55-3.317 0.798-7.403 1.062-11.738 0.983-16.225 3.031-49.982 39.322-49.982h0.003c3.021 0 6.268 0.261 9.648 0.776 33.795 5.136 32.736 35.993 32.227 50.818-0.143 4.176-0.28 8.125 0.073 10.752 0.095 0.661 0.143 1.326 0.146 1.991zM559.947 878.309c4.055-0.293 7.893-0.572 11.089-1.062 224.8-34.571 328.182-141.080 356.832-367.638 0.487-3.851 0.563-8.548 0.642-13.522 0.286-17.701 0.875-54.523 40.419-55.286l1.228-0.013c12.402 0 22.267 3.74 29.324 11.124 12.31 12.876 11.452 32.005 10.758 47.377-0.169 3.772-0.331 7.324-0.289 10.434 2.859 231.71-197.712 441.824-429.215 449.638-0.96 0.032-1.876-0.019-2.802-0.149-0.455-0.067-1.297-0.149-2.741-0.149-2.309 0-5.149 0.2-8.16 0.404-3.641 0.248-7.769 0.534-11.954 0.534-36.867 0-43.876-26.204-44.773-41.825-2.067-36.101 32.857-38.642 49.642-39.866zM917.021 216.795c-4.78 3.651-9.722 7.429-14.349 11.156-24.544 19.752-50.656 37.958-75.91 55.566-5.241 3.651-10.482 7.305-15.703 10.968-32.348 22.722-61.43 33.763-88.907 33.763-37.007 0-69.273-20.448-95.903-60.769-11.798-17.875-26.112-26.567-43.752-26.567-10.431 0-22.283 2.977-35.223 8.85-104.413 47.349-178.971 119.945-221.607 215.771-20.61 46.315-13.929 76.59 22.344 101.23 20.598 13.98 58.937 40.006 56.221 89.845-3.075 56.597-127.952 226.889-180.567 246.231-22.277 8.192-45.682 8.268-69.692 0.191-60.486-20.334-103.891-56.043-125.535-103.262-20.916-45.625-19.971-99.198 2.732-154.926 65.631-161.124 157.906-301.603 274.27-417.528 113.899-113.48 253.892-206.435 416.084-276.273 14.619-6.29 29.954-9.722 41.151-12.224 3.816-0.859 7.111-1.59 9.512-2.248 1.32-0.359 2.681-0.553 4.045-0.566l1.282-0.006c0.003 0 0 0 0.006 0 76.285 0 167.882 69.708 196.013 149.18 24.646 69.587-20.353 103.984-56.511 131.619zM593.688 694.256c-13.061-0.331-40.241-1.005-49.778-28.688-4.462-12.937-3.927-24.169 1.59-33.385 8.097-13.522 23.609-17.666 37.719-19.939 51.171-8.211 77.452-36.508 82.709-89.043 2.442-24.496 18.938-41.602 40.117-41.602h0.003c1.565 0 3.164 0.092 4.757 0.286 25.473 3.031 37.821 21.746 36.705 55.62 0.407 35.353-18.095 75.49-49.562 107.46-31.575 32.068-69.638 50.128-104.26 49.292z" />
<glyph unicode="&#xe936;" glyph-name="twitter" d="M1000.788 770.434c-16.087-7.135-32.626-13.157-49.525-18.046 20.008 22.627 35.262 49.251 44.574 78.386 2.088 6.53-0.076 13.679-5.444 17.95-5.361 4.274-12.81 4.786-18.713 1.288-35.89-21.286-74.61-36.583-115.21-45.528-40.897 39.962-96.444 62.705-153.868 62.705-121.212 0-219.826-98.611-219.826-219.82 0-9.546 0.604-19.040 1.8-28.401-150.412 13.206-290.248 87.136-386.273 204.926-3.422 4.198-8.694 6.461-14.092 6.028-5.401-0.423-10.253-3.468-12.982-8.149-19.476-33.419-29.772-71.64-29.772-110.529 0-52.967 18.911-103.223 52.316-142.491-10.157 3.518-20.014 7.915-29.422 13.137-5.051 2.811-11.214 2.768-16.232-0.109-5.021-2.877-8.169-8.169-8.301-13.953-0.023-0.974-0.023-1.949-0.023-2.937 0-79.063 42.552-150.244 107.609-189.040-5.589 0.558-11.175 1.368-16.724 2.428-5.721 1.093-11.604-0.912-15.462-5.275-3.865-4.36-5.143-10.438-3.363-15.988 24.081-75.181 86.079-130.481 161.029-147.34-62.163-38.935-133.252-59.329-207.879-59.329-15.571 0-31.232 0.915-46.559 2.728-7.614 0.905-14.894-3.591-17.487-10.831-2.593-7.244 0.155-15.32 6.633-19.473 95.87-61.47 206.722-93.96 320.568-93.96 223.807 0 363.814 105.538 441.853 194.074 97.313 110.397 153.124 256.522 153.124 400.903 0 6.032-0.092 12.123-0.277 18.194 38.393 28.926 71.449 63.934 98.347 104.171 4.086 6.111 3.643 14.187-1.090 19.813-4.727 5.629-12.605 7.449-19.33 4.469z" />
<glyph unicode="&#xe937;" glyph-name="tumblr" d="M825.063 177.373c-5.328 2.884-11.826 2.606-16.909-0.73-46.741-30.703-94.040-46.268-140.575-46.268-25.362 0-47.187 5.698-66.844 17.497-13.289 7.815-22.092 17.834-26.885 30.578-3.657 9.837-8.027 36.005-8.027 104.841v237.651h218.568c9.124 0 16.516 7.396 16.516 16.516v155.582c0 9.124-7.393 16.516-16.516 16.516h-218.568v233.928c0 9.124-7.393 16.516-16.516 16.516h-140.995c-8.334 0-15.367-6.213-16.387-14.488-6.065-48.99-17.18-89.659-33.065-120.901-15.671-30.988-36.801-57.892-62.821-79.991-25.904-22.089-57.645-39.305-94.35-51.17-6.818-2.203-11.439-8.552-11.439-15.717v-140.275c0-9.12 7.393-16.516 16.516-16.516h93.045v-331.105c0-47.87 5.031-83.77 15.38-109.727 10.432-26.277 29.167-51.187 55.702-74.052 26.168-22.465 58.031-39.982 94.703-52.052 36.24-11.951 78.386-18.009 125.265-18.009 41.013 0 79.743 4.192 115.117 12.46 35.444 8.304 75.244 22.825 118.292 43.157 5.781 2.728 9.464 8.545 9.464 14.934v156.289c0.007 6.075-3.32 11.657-8.671 14.537z" />
<glyph unicode="&#xe938;" glyph-name="telegram" d="M18.087 466.278l235.95-88.064 91.327-293.707c5.844-18.811 28.846-25.764 44.114-13.281l131.523 107.22c13.786 11.233 33.423 11.793 47.831 1.335l237.22-172.227c16.333-11.872 39.472-2.922 43.568 16.814l173.776 835.895c4.471 21.559-16.712 39.543-37.239 31.604l-968.346-373.559c-23.897-9.216-23.689-43.049 0.276-52.029zM330.646 425.093l461.135 284.013c8.288 5.089 16.814-6.117 9.697-12.718l-380.57-353.758c-13.377-12.452-22.006-29.116-24.45-47.203l-12.964-96.072c-1.717-12.827-19.736-14.1-23.276-1.686l-49.859 175.189c-5.711 19.982 2.611 41.325 20.285 52.234z" />
<glyph unicode="&#xe939;" glyph-name="technorati" d="M511.98 896.631c-282.31 0-511.98-183.666-511.98-409.422 0-113.509 59.032-221.931 162.459-299.206l-57.889-166.704c-2.111-6.071-0.502-12.817 4.116-17.282 3.135-3.039 7.277-4.648 11.492-4.648 1.985 0 4 0.357 5.923 1.1l243.141 93.514c46.367-10.722 94.36-16.156 142.742-16.156 282.327 0 512.017 183.646 512.017 409.382 0 225.756-229.69 409.422-512.020 409.422zM713.206 369.32c-53.502-33.6-124.968-52.102-201.226-52.102s-147.717 18.505-201.219 52.102c-51.111 32.097-79.258 73.969-79.258 117.889 0 43.943 28.147 85.818 79.258 117.925 53.496 33.604 124.961 52.108 201.219 52.108 76.265 0 147.724-18.508 201.226-52.108 51.111-32.107 79.258-73.982 79.258-117.925 0-43.923-28.147-85.791-79.258-117.889z" />
<glyph unicode="&#xe93a;" glyph-name="stumbleupon" d="M548.005 544.114c0-9.12 7.393-16.516 16.516-16.516h168.96c9.124 0 16.516 7.396 16.516 16.516v64.096c0 131.34-106.764 238.186-237.994 238.186-131.244 0-238.014-106.849-238.014-238.186v-314.712c0-19.849-16.143-35.999-35.982-35.999-19.852 0-35.999 16.153-35.999 35.999v139.852c0 9.12-7.393 16.516-16.516 16.516h-168.977c-9.124 0-16.516-7.396-16.516-16.516v-145.56c0-131.34 106.77-238.186 238.014-238.186 131.231 0 237.994 106.849 237.994 238.186v320.42c0 19.836 16.149 35.975 35.999 35.975 19.852 0 35.999-16.14 35.999-35.975v-64.096zM1007.484 447.009h-168.967c-9.124 0-16.516-7.396-16.516-16.516v-142.703c0-19.849-16.149-35.999-35.999-35.999-19.852 0-35.999 16.153-35.999 35.999v142.703c0 9.12-7.393 16.516-16.516 16.516h-168.967c-9.124 0-16.516-7.396-16.516-16.516v-142.703c0-131.34 106.764-238.186 237.994-238.186 131.234 0 238.001 106.849 238.001 238.186v142.703c0 9.12-7.393 16.516-16.516 16.516z" />
<glyph unicode="&#xe93b;" glyph-name="soundcloud" d="M49.466 246.968c2.113 0 3.901 1.737 4.205 4.185l11.486 91.037-11.452 93.109c-0.341 2.447-2.127 4.198-4.239 4.198-2.167 0-4.014-1.789-4.301-4.198l-10.039-93.109 10.039-91.006c0.287-2.444 2.133-4.215 4.301-4.215zM11.595 281.593c2.075 0 3.758 1.615 4.062 4.028l8.902 56.573-8.902 57.631c-0.307 2.338-1.987 4.028-4.062 4.028-2.167 0-3.847-1.69-4.154-4.062l-7.441-57.6 7.441-56.556c0.307-2.393 1.987-4.041 4.154-4.041zM94.761 452.628c-0.273 2.959-2.441 5.12-5.13 5.12-2.669 0-4.84-2.161-5.089-5.12l-9.595-110.438 9.595-106.407c0.249-2.942 2.42-5.076 5.089-5.076 2.69 0 4.857 2.133 5.13 5.076l10.854 106.407-10.854 110.438zM130.225 226.42c3.147 0 5.693 2.591 6.001 5.977l10.257 109.759-10.257 113.521c-0.307 3.41-2.854 5.97-6.001 5.97-3.191 0-5.775-2.563-5.994-5.987l-9.066-113.504 9.066-109.759c0.218-3.389 2.802-5.977 5.994-5.977zM171.1 224.638c3.666 0 6.608 2.935 6.912 6.864l-0.034-0.027 9.66 110.681-9.66 105.325c-0.273 3.864-3.212 6.844-6.881 6.844-3.721 0-6.646-2.98-6.868-6.874l-8.54-105.298 8.54-110.653c0.225-3.925 3.151-6.861 6.871-6.861zM229.144 342.129l-9.062 171.254c-0.253 4.342-3.635 7.803-7.786 7.803-4.12 0-7.492-3.458-7.745-7.803l-8.021-171.254 8.021-110.653c0.253-4.362 3.628-7.776 7.745-7.776 4.154 0 7.533 3.413 7.786 7.776v-0.031l9.062 110.684zM253.904 223.519c4.57 0 8.363 3.792 8.578 8.632v-0.072l8.472 110.022-8.472 210.452c-0.215 4.84-4.007 8.632-8.578 8.632-4.676 0-8.434-3.792-8.687-8.632l-7.458-210.452 7.492-109.984c0.218-4.806 3.977-8.598 8.653-8.598zM295.748 579.635c-5.147 0-9.301-4.226-9.513-9.554l-6.939-228.014 6.939-108.831c0.215-5.301 4.366-9.499 9.513-9.499 5.134 0 9.318 4.164 9.499 9.516v-0.055l7.875 108.868-7.875 228.014c-0.181 5.362-4.369 9.554-9.499 9.554zM337.954 223.519c5.652 0 10.155 4.56 10.366 10.431v-0.065l7.281 108.179-7.281 235.674c-0.215 5.85-4.714 10.431-10.366 10.431-5.687 0-10.257-4.581-10.346-10.431l-6.54-235.674 6.54-108.179c0.089-5.806 4.659-10.366 10.346-10.366zM380.508 223.628c6.1 0 11.049 4.994 11.233 11.325v-0.099l6.7 107.192-6.7 229.68c-0.184 6.328-5.134 11.302-11.233 11.302-6.144 0-11.093-4.97-11.274-11.302l-5.888-229.68 5.926-107.141c0.143-6.284 5.093-11.278 11.237-11.278zM441.545 342.047l-6.065 221.307c-0.147 6.827-5.492 12.189-12.121 12.189-6.646 0-11.994-5.362-12.134-12.233l-5.441-221.263 5.441-106.489c0.14-6.772 5.485-12.138 12.134-12.138 6.625 0 11.974 5.366 12.121 12.237v-0.099l6.065 106.489zM466.541 223.222c7.045 0 12.879 5.861 12.988 13.066v-0.058l5.506 105.759-5.506 263.349c-0.106 7.233-5.939 13.083-12.988 13.083-7.042 0-12.858-5.878-13.001-13.121l-4.895-263.206 4.895-105.868c0.143-7.144 5.96-13.005 13.001-13.005zM509.58 643.195c-7.608 0-13.78-6.311-13.906-14.005l-5.69-287.235 5.724-104.195c0.092-7.595 6.267-13.885 13.872-13.885 7.492 0 13.78 6.294 13.814 14.012v-0.126l6.212 104.195-6.212 287.235c-0.034 7.721-6.321 14.005-13.814 14.005zM548.932 223.123c0.307-0.027 346.873-0.191 349.099-0.191 69.581 0 125.966 57.078 125.966 127.512 0 70.397-56.388 127.485-125.966 127.485-17.268 0-33.72-3.529-48.725-9.923-9.974 114.93-105.182 205.063-221.327 205.063-28.392 0-56.078-5.673-80.531-15.254-9.516-3.721-12.063-7.557-12.138-14.991v-404.613c0.109-7.817 6.069-14.312 13.623-15.087z" />
<glyph unicode="&#xe93c;" glyph-name="skype" d="M987.788 339.292c7.281 33.297 11.155 67.86 11.155 103.332 0 265.957-215.607 481.567-481.574 481.567-28.078 0-55.59-2.427-82.357-7.045-43.039 27.116-93.959 42.854-148.579 42.854-154.242 0-279.276-125.047-279.276-279.265 0-51.555 14.025-99.806 38.386-141.261-6.386-31.287-9.742-63.669-9.742-96.847 0-265.957 215.603-481.567 481.567-481.567 30.126 0 59.593 2.789 88.18 8.079 39.315-21.129 84.268-33.14 132.021-33.14 154.245 0 279.272 125.034 279.272 279.265 0 44.568-10.489 86.654-29.054 124.027zM764.355 212.487c-22.279-31.526-55.194-56.508-97.84-74.237-42.233-17.555-92.86-26.457-150.487-26.457-69.168 0-127.157 12.165-172.418 36.175-32.355 17.48-59.037 41.151-79.288 70.359-20.456 29.508-30.833 58.788-30.833 87.020 0 17.647 6.758 32.945 20.091 45.466 13.193 12.411 30.099 18.698 50.258 18.698 16.548 0 30.819-4.97 42.424-14.773 11.083-9.393 20.596-23.293 28.239-41.243 8.533-19.545 17.838-36.048 27.665-49.046 9.445-12.503 23.033-23.013 40.387-31.215 17.459-8.267 40.994-12.455 69.943-12.455 39.81 0 72.451 8.499 97.004 25.265 23.979 16.374 35.639 36.028 35.639 60.088 0 19.012-6.086 33.952-18.599 45.677-13.107 12.257-30.392 21.798-51.388 28.341-21.886 6.823-51.599 14.182-88.351 21.876-49.787 10.663-92.109 23.313-125.815 37.612-0.13 0.051-0.263 0.106-0.393 0.164-34.533 14.688-62.365 35.055-82.726 60.539-20.681 25.88-31.16 58.348-31.16 96.512 0 36.379 11.001 69.171 32.7 97.457 21.535 28.088 52.985 49.917 93.474 64.894 39.967 14.78 87.508 22.269 141.298 22.269 43.008 0 80.821-4.966 112.381-14.78 31.741-9.885 58.501-23.235 79.527-39.66 21.18-16.548 36.932-34.253 46.828-52.64 9.994-18.572 15.060-37.055 15.060-54.934 0-17.207-6.646-32.843-19.753-46.473-13.186-13.708-29.826-20.668-49.459-20.668-17.835 0-31.792 4.352-41.479 12.933-9.015 7.967-18.36 20.388-28.74 38.26-12.008 22.815-26.539 40.8-43.213 53.473-16.179 12.308-43.233 18.558-80.401 18.558-34.519 0-62.594-6.929-83.439-20.596-20.087-13.169-29.846-28.269-29.846-46.159 0-10.974 3.14-20.142 9.602-28.034 6.844-8.359 16.497-15.701 28.699-21.804 12.657-6.362 25.699-11.418 38.765-15.025 13.384-3.714 35.84-9.216 66.635-16.329 32.447-6.967 62.665-14.64 90.173-22.852 5.526-1.649 10.988-3.318 16.285-5.011 32.068-10.264 59.781-22.924 82.381-37.622 23.067-15.022 41.332-34.314 54.292-57.344 12.995-23.112 19.579-51.651 19.579-84.801-0.007-39.68-11.346-75.834-33.7-107.479z" />
<glyph unicode="&#xe93d;" glyph-name="kickstarter" d="M409.969 611.038l187.795 272.090c35.485 51.224 81.319 76.872 137.527 76.872 45.838 0 85.497-16.288 119.023-48.783 33.509-32.556 50.278-71.485 50.278-116.832 0-33.526-8.875-63.092-26.617-88.743l-169.315-246.18 207.019-262.465c20.702-26.146 31.055-56.702 31.055-91.672 0-46.353-16.268-86.139-48.797-119.419-32.536-33.28-71.97-49.91-118.303-49.91-50.767 0-89.446 16.497-116.067 49.548l-253.6 316.426v-174.483c0-49.794-8.625-88.477-25.873-116.087-31.546-50.265-77.384-75.401-137.52-75.401-54.702 0-97.106 18.476-127.171 55.446-28.095 34.021-42.138 79.118-42.138 135.305v646.95c0 53.204 14.292 97.079 42.878 131.577 30.065 36.475 71.458 54.723 124.211 54.723 50.272 0 92.167-18.248 125.693-54.723 18.726-20.227 30.549-40.663 35.485-61.361 2.953-12.807 4.434-36.704 4.434-71.718v-161.161z" />
<glyph unicode="&#xe93e;" glyph-name="lastfm" d="M859.728 519.989c-8.738 2.991-17.193 5.764-25.314 8.433-64.447 21.133-86.731 30.271-86.731 66.157 0 31.117 22.102 52.858 53.745 52.858 25.961 0 43.892-10.75 61.892-37.092 7.009-10.266 20.636-13.614 31.601-7.766l62.246 33.174c5.728 3.049 9.999 8.26 11.872 14.476 1.872 6.209 1.193 12.915-1.892 18.624-36.159 66.953-90.736 100.895-162.215 100.895-53.937 0-99.63-16.992-132.158-49.142-32.241-31.868-49.282-76.241-49.282-128.312 0-109.249 69.232-154.439 188.751-195.555 68.413-23.767 84.407-32.953 84.407-68.66 0-44.139-38.122-76.179-90.648-76.179-1.58 0-3.186 0.026-4.811 0.081-56.489 1.973-73.874 29.543-100.089 91.988-42.088 100.17-91.289 220.189-94.939 229.321-0.039 0.101-0.081 0.208-0.12 0.312-53.365 128.52-159.474 202.229-291.125 202.229-173.648 0-314.917-147.085-314.917-327.888 0-180.738 141.27-327.771 314.914-327.771 94.978 0 183.862 43.853 243.862 120.325 5.442 6.934 6.71 16.267 3.332 24.407l-37.517 90.31c-3.657 8.813-12.122 14.674-21.65 15.015-9.574 0.341-18.38-4.915-22.661-13.442-32.433-64.691-95.798-104.877-165.365-104.877-102.914 0-186.641 87.944-186.641 196.033 0 108.121 83.727 196.088 186.641 196.088 74.863 0 143.36-46.399 170.446-115.455 0.075-0.179 0.146-0.361 0.221-0.54l92.888-220.995 10.705-24.761c44.897-109.233 111.414-158.158 215.719-158.629h0.432c124.661 0 218.674 86.793 218.674 201.884 0 115.4-62.87 159.965-164.272 194.456z" />
<glyph unicode="&#xe93f;" glyph-name="linkedin" d="M238.361 630.569h-205.57c-9.124 0-16.516-7.396-16.516-16.516v-660.407c0-9.124 7.393-16.516 16.516-16.516h205.57c9.124 0 16.516 7.393 16.516 16.516v660.407c0 9.12-7.393 16.516-16.516 16.516zM135.65 958.874c-74.798 0-135.65-60.786-135.65-135.502 0-74.749 60.852-135.558 135.65-135.558 74.739 0 135.541 60.812 135.541 135.558 0.003 74.716-60.802 135.502-135.541 135.502zM761.242 646.983c-82.564 0-143.598-35.493-180.617-75.822v42.892c0 9.12-7.393 16.516-16.516 16.516h-196.869c-9.124 0-16.516-7.396-16.516-16.516v-660.407c0-9.124 7.393-16.516 16.516-16.516h205.12c9.124 0 16.516 7.393 16.516 16.516v326.748c0 110.106 29.907 153.002 106.661 153.002 83.591 0 90.234-68.767 90.234-158.667v-321.087c0-9.124 7.393-16.516 16.516-16.516h205.196c9.124 0 16.516 7.393 16.516 16.516v362.245c0 163.724-31.219 331.096-262.758 331.096z" />
<glyph unicode="&#xe940;" glyph-name="livejournal" d="M539.405 894.632c-63.569 0-125.308-12.315-183.626-36.532l-99.432 99.442c-2.75 2.753-7.030 3.247-10.347 1.205-96.81-59.856-179.614-142.662-239.462-239.469-2.048-3.31-1.551-7.594 1.202-10.347l95.316-95.293c-28.508-62.572-43.001-129.259-43.001-198.334 0-264.29 215.037-479.307 479.351-479.307 264.297 0 479.318 215.017 479.318 479.307 0 264.304-215.021 479.328-479.318 479.328zM729.309 460.877l33.383-141.286 32.040-149.051-148.857 32.006-141.195 33.215-381.423 381.413c47.849 98.499 128.719 176.662 228.685 221.024l377.367-377.32zM744.534 330.839l-25.254 110.871c-86.926-39.916-155.796-108.786-195.679-195.719l110.871-25.248c23.539 47.081 63.015 86.547 110.062 110.095z" />
<glyph unicode="&#xe941;" glyph-name="myspace" d="M845.703 437.124c90.211 0 163.607 73.157 163.607 163.083s-73.393 163.083-163.607 163.083c-90.252 0-163.679-73.157-163.679-163.083s73.427-163.083 163.679-163.083zM480.998 409.786c82.063 0 148.828 66.538 148.828 148.331 0 81.802-66.765 148.353-148.828 148.353-82.072 0-148.843-66.548-148.843-148.353 0-81.793 66.771-148.331 148.843-148.331zM147.375 385.198c74.718 0 135.506 60.565 135.506 135.007 0 74.467-60.788 135.047-135.506 135.047-74.715 0-135.503-60.58-135.503-135.047 0-74.445 60.788-135.007 135.503-135.007zM147.378 357.907c-88.157 0-147.378-78.227-147.378-151.291v-46.437c0-15.146 12.338-27.468 27.496-27.468h239.728c15.177 0 27.521 12.322 27.521 27.468v46.437c0 73.064-59.215 151.291-147.366 151.291zM480.991 379.507c-96.929 0-162.043-86.038-162.043-166.388v-51.6c0-15.884 12.933-28.805 28.833-28.805h266.383c15.915 0 28.861 12.921 28.861 28.805v51.6c0 80.35-65.111 166.388-162.034 166.388zM845.684 403.468c-106.664 0-178.316-94.704-178.316-183.15v-57.328c0-16.697 13.601-30.279 30.317-30.279h295.964c16.738 0 30.351 13.582 30.351 30.279v57.328c0 88.449-71.652 183.15-178.316 183.15z" />
<glyph unicode="&#xe942;" glyph-name="opera" d="M512.703-64c-61.853 0-119.579 12.114-172.831 36.55-53.2 24.497-101.021 60.747-143.411 108.312-46.316 51.043-80.613 106.356-102.434 165.939-21.828 59.436-32.485 126.365-32.485 200.537s10.656 141.049 32.485 200.492c21.818 59.535 56.115 114.9 102.434 165.939 42.844 47.971 90.764 84.579 144.063 109.315 53.303 24.641 110.776 36.915 172.179 36.915 61.392 0 118.921-12.274 172.128-36.912 53.251-24.74 101.277-61.348 144.009-109.315 45.913-50.644 79.91-105.656 101.478-164.936 21.62-59.187 32.137-126.467 32.137-201.496 0-75.022-10.516-142.35-32.137-201.486-21.565-59.337-55.562-114.306-101.427-164.99-42.441-47.565-90.112-83.818-143.415-108.312-53.299-24.439-110.927-36.553-172.773-36.553v0zM512.703 2.123c69.485 0 113.746 26.549 138.687 78.039 26.75 54.968 41.885 175.398 41.885 367.179 0 191.686-15.138 312.17-41.885 367.23-24.941 51.391-69.199 77.943-138.687 77.943-69.898 0-114.551-26.805-139.793-78.701-27.003-55.463-42.138-175.691-42.138-366.473 0-190.836 15.135-311.108 42.138-366.578 25.242-51.831 69.895-78.64 139.793-78.64v0z" />
<glyph unicode="&#xe943;" glyph-name="paypal" d="M948.695 781.407c41.592-76.275 27.867-166.22 11.486-219.376-88.641-289.544-488.607-273.795-546.47-273.795-57.795 0-71.254-53.893-71.254-53.893l-43.213-188.526c-11.779-66.175-71.793-62.877-71.793-62.877s-78.009 0-130.188 0c-3.273 0-6.328 0.225-9.134 0.631-0.645-12.117 1.079-47.541 44.401-47.541 52.139 0 130.147 0 130.147 0s60.013-3.366 71.834 62.806l43.165 188.519c0 0 13.507 53.897 71.301 53.897 57.767 0 457.829-15.746 546.514 273.808 19.787 64.717 35.874 183.635-46.797 266.347zM259.046 86.911l43.206 188.533c0 0 13.421 53.801 71.301 53.801 57.747 0 457.781-15.664 546.429 273.819 32.437 105.838 54.958 356.92-348.956 356.92h-291.749c0 0-60.641 2.816-75.606-61.659l-190.628-822.715c0 0-8.185-51.555 43.974-51.555 52.207 0 130.233 0 130.233 0s60.013-3.393 71.796 62.857zM369 565.482l38.741 167.179c0 0 12.339 45.462 52.207 52.193 39.827 6.755 107.667-1.201 125.12-4.495 113.299-21.279 89.201-128.478 89.201-128.478-22.433-165.476-280.007-142.514-280.007-142.514-40.383 14.602-25.262 56.115-25.262 56.115z" />
<glyph unicode="&#xe944;" glyph-name="picasa" d="M723.081 913.056c-66.799 30.338-137.793 45.872-211.108 45.872-61.044 0-121.068-11.742-178.801-33.382 13.541-12.281 372.422-338.016 389.905-353.908 0.003 23.504 0.003 334.189 0.003 341.419zM248.433 9.643c0 20.019 0 416.635 0 440.245-17.114-15.565-205.65-186.931-211.548-192.266 41.042-102.915 115.941-190.191 211.548-247.979zM0 446.928c0-43.964 6.636-88.668 18.592-133.004 13.875 12.626 444.962 404.275 453.833 412.355-8.66 7.864-187.918 170.578-193.748 175.886-171.913-88.238-278.678-262.185-278.678-455.236zM302.223 224.413c0-10.633 0-236.971 0-244.275 52.026-23.368 106.465-37.857 162.495-43.066h94.020c176.845 16.48 334.708 125.501 413.164 287.345-18.49-0.003-658.674-0.003-669.679-0.003zM777.062 883.671c0-20.309 0-594.394 0-605.31 10.53 0 209.749 0 217.866 0 19.087 54.545 29.071 111.223 29.071 168.571 0 177.923-94.604 344.030-246.938 436.739z" />
<glyph unicode="&#xe945;" glyph-name="pinterest" d="M810.035 855.067c-70.486 67.666-168.031 104.933-274.665 104.933-162.889 0-263.073-66.771-318.432-122.781-68.227-69.026-107.351-160.679-107.351-251.464 0-113.986 47.678-201.474 127.52-234.022 5.36-2.196 10.754-3.303 16.041-3.303 16.844 0 30.19 11.021 34.814 28.7 2.695 10.143 8.94 35.164 11.655 46.026 5.813 21.451 1.116 31.769-11.559 46.707-23.092 27.323-33.846 59.633-33.846 101.683 0 124.901 93.004 257.646 265.378 257.646 136.771 0 221.733-77.735 221.733-202.868 0-78.964-17.009-152.092-47.902-205.923-21.468-37.403-59.217-81.989-117.17-81.989-25.061 0-47.572 10.294-61.777 28.241-13.419 16.966-17.841 38.883-12.445 61.724 6.097 25.807 14.41 52.727 22.455 78.753 14.674 47.532 28.545 92.426 28.545 128.244 0 61.265-37.664 102.43-93.714 102.43-71.232 0-127.038-72.349-127.038-164.709 0-45.296 12.038-79.175 17.488-92.185-8.973-38.021-62.305-264.060-72.421-306.685-5.849-24.882-41.086-221.409 17.237-237.081 65.529-17.607 124.102 173.798 130.063 195.427 4.832 17.59 21.738 84.103 32.099 124.99 31.633-30.471 82.567-51.070 132.128-51.070 93.43 0 177.454 42.043 236.595 118.378 57.358 74.040 88.948 177.236 88.948 290.564 0 88.598-38.047 175.941-104.378 239.63z" />
<glyph unicode="&#xe946;" glyph-name="rss" d="M298.096 85.213c0 81.649-66.411 148.077-148.041 148.077-81.639 0-148.057-66.428-148.057-148.077 0-81.636 66.418-148.051 148.057-148.051 81.629 0 148.041 66.415 148.041 148.051zM18.657 400.334c118.787 0 230.506-46.463 314.569-130.824 84.067-84.506 130.368-197.031 130.368-316.845 0-9.124 7.393-16.516 16.516-16.516h189.889c9.124 0 16.516 7.393 16.516 16.516 0 369.803-299.599 670.657-667.863 670.657-9.124 0-16.516-7.393-16.516-16.516v-189.952c0.003-9.124 7.399-16.519 16.519-16.519zM18.914 960c-9.124 0-16.516-7.393-16.516-16.516v-189.919c0-9.124 7.393-16.516 16.516-16.516 430.212 0 780.219-351.939 780.219-784.533 0-9.124 7.393-16.516 16.516-16.516h189.84c9.124 0 16.516 7.393 16.516 16.516 0 555.53-449.985 1007.484-1003.091 1007.484z" />
<glyph unicode="&#xe947;" glyph-name="sharethis" d="M361.387 448c0-3.499-0.788-6.775-1-10.278l366.886-183.446c31.447 26.614 71.612 43.223 115.999 43.223 99.82 0 180.726-80.889 180.726-180.722 0.003-99.888-80.903-180.777-180.722-180.777-99.888 0-180.664 80.889-180.664 180.777 0 3.615 0.778 6.833 1 10.349l-366.896 183.375c-31.539-26.501-71.605-43.11-115.992-43.11-99.83 0-180.722 80.835-180.722 180.61 0 99.881 80.893 180.777 180.719 180.777 44.39 0 84.494-16.667 115.992-43.165l366.896 183.385c-0.222 3.499-1 6.782-1 10.397 0.003 99.71 80.78 180.606 180.668 180.606 99.82 0 180.726-80.896 180.726-180.61 0-99.898-80.906-180.78-180.726-180.78-44.5 0-84.606 16.678-115.999 43.281l-366.886-183.511c0.208-3.499 0.997-6.769 0.997-10.38v0z" />
<glyph unicode="&#xe948;" glyph-name="ebay" d="M1021.566 559.481c-2.999 4.899-8.334 7.888-14.082 7.888h-53.317c-6.263 0-11.991-3.544-14.785-9.153l-69.526-139.581-69.705 139.601c-2.798 5.596-8.519 9.137-14.779 9.137h-58.93c-3.756 0-7.33-1.275-10.197-3.521-18.772 8.36-42.113 12.575-69.88 12.575-87.75 0-115.557-38.169-124.36-62.87-22.336 38.526-63.818 62.213-115.57 62.213-33.564 0-57.483-8.162-73.913-17.567v88.378c0 9.124-7.393 16.516-16.516 16.516h-50.493c-9.124 0-16.516-7.393-16.516-16.516v-108.554c-22.525 22.961-56.931 38.393-104.365 38.393-93.27 0-144.632-48.184-144.632-135.677 0-85.101 52.013-131.967 146.458-131.967 51.695 0 82.98 15.561 101.862 33.386-0.208-5.206-0.38-8.767-0.383-8.856-0.218-4.516 1.42-8.925 4.535-12.196 3.115-3.277 7.442-5.13 11.961-5.13h49.433c7.551 0 14.019 5.097 15.938 12.182 16.737-10.435 41.634-20.064 76.526-20.064 44.105 0 81.467 17.537 105.449 47.808 16.457-30.337 52.194-48.425 100.055-48.425 38.066 0 64.525 10.105 82.055 21.108 1.764-7.28 8.327-12.602 16.047-12.602h46.516c0.026 0 0.053 0 0.053 0 9.137 0 16.529 7.393 16.529 16.516 0 1.014-0.089 2.005-0.264 2.966-0.406 4.631-1.638 19.486-1.638 29.296v67.062l52.432-98.38-40.177-76.328c-2.692-5.12-2.514-11.277 0.476-16.229 2.993-4.955 8.357-7.981 14.141-7.981h55.907c6.21 0 11.898 3.485 14.716 9.018l153.577 301.433c2.606 5.113 2.365 11.221-0.638 16.12zM142.898 509.935c25.944 0 44.61-11.72 51.22-30.955h-105.535c8.384 20.212 31.912 30.955 54.315 30.955zM192.621 400.566c-0.892-2.692-9.863-26.3-49.294-26.3-28.507 0-49.971 15.122-56.812 38.334h121.697c-7.333 0-13.53-4.998-15.591-12.034zM394.039 375.266c-42.42 0-61.407 33.594-61.407 66.884 0 33.039 18.885 66.382 61.063 66.382 36.55 0 61.096-26.492 61.096-65.922 0.003-39.021-25.547-67.343-60.753-67.343zM603.258 491.788c0.013 0.182 2.514 18.485 39.437 18.485 9.768 0 40.028-1.843 44.372-24.071h-44.372c-15.337 0-29.445-0.832-42.318-2.491 1.609 2.319 2.639 5.077 2.88 8.076zM538.617 464.202c-0.585 4.215-1.331 8.347-2.246 12.384h30.168c-10.587-3.29-19.899-7.419-27.922-12.384zM624.135 373.644c-13.827 0-37.016 3.082-37.016 23.711 0 5.358 0 13.451 23.889 18.541 18.746 3.997 45.436 4.588 76.516 4.677-0.644-11.548-7.221-46.929-63.389-46.929z" />
<glyph unicode="&#xe949;" glyph-name="evernote" d="M921.508 774.192c0 65.519-97.382 72.977-97.382 72.977l-228.635 14.691c0 0-4.748 63.252-51.067 85.169-25.972 12.428-106.626 13.783-182.316 12.65-17.398-0.222-31.403-14.452-31.403-31.853v-145.493c0-23.723-19.2-42.926-42.926-42.926h-138.052c-36.14 0-64.386-14.012-64.386-43.834s42.472-349.74 101.209-408.248c33.891-33.894 241.524-60.102 285.358-60.102 43.831 0 29.14 130.144 41.346 130.144 12.192 0 25.528-74.793 94.437-92.191 68.902-17.391 160.857-14.455 165.605-64.386 6.328-65.744 12.199-150.924-30.502-156.795l-96.253-4.062c-28.46 0-25.078 78.172-19.2 78.172 9.721 0 17.848 0.218 24.399 0.218 10.851 0.225 19.661 9.032 20.111 19.886l1.812 40.666c0.447 11.742-8.813 21.685-20.559 21.685-42.028 0.683-131.273-7.677-136.008-86.757-5.881-94.891 10.168-139.404 21.91-149.111 11.745-9.721 32.085-28.696 217.122-28.696 261.171 0.003 165.379 772.676 165.379 838.195v0zM794.754 459.025c-6.547-6.1-34.792 17.848-57.153 17.848-22.374 0-41.574-18.295-47.449-11.302-5.652 6.786 5.195 62.365 47.449 62.365 42.24 0 63.706-62.809 57.153-68.912v0zM251.174 933.246l-114.319-117.48c-9.039-9.26-2.488-24.62 10.387-24.62h114.326c8.137 0 14.462 6.547 14.462 14.452v117.484c0.212 13.104-15.596 19.657-24.856 10.165v0z" />
<glyph unicode="&#xe94a;" glyph-name="facebook" d="M269.883 414.618h112.247v-462.101c0-9.124 7.393-16.516 16.516-16.516h190.319c9.124 0 16.516 7.393 16.516 16.516v459.925h129.037c8.39 0 15.449 6.296 16.407 14.63l19.598 170.123c0.538 4.681-0.945 9.368-4.076 12.879-3.135 3.515-7.621 5.526-12.328 5.526h-148.632v106.641c0 32.147 17.309 48.448 51.451 48.448 4.866 0 97.181 0 97.181 0 9.124 0 16.516 7.396 16.516 16.516v156.157c0 9.124-7.393 16.516-16.516 16.516h-133.929c-0.945 0.046-3.042 0.122-6.134 0.122-23.238 0-104.012-4.562-167.817-63.26-70.696-65.047-60.869-142.931-58.52-156.434v-124.703h-117.836c-9.124 0-16.516-7.393-16.516-16.516v-167.949c0-9.124 7.393-16.519 16.516-16.519z" />
<glyph unicode="&#xe94b;" glyph-name="flickr" d="M461.278 448c0-127.378-103.261-230.639-230.639-230.639s-230.639 103.261-230.639 230.639c0 127.378 103.261 230.639 230.639 230.639s230.639-103.261 230.639-230.639zM1024 448c0-127.378-103.261-230.639-230.639-230.639s-230.639 103.261-230.639 230.639c0 127.378 103.261 230.639 230.639 230.639s230.639-103.261 230.639-230.639z" />
<glyph unicode="&#xe94c;" glyph-name="forrst" d="M948.564-60.085l-436.645 1020.085-436.477-1020.082c-0.728-1.688-0.675-2.81-0.468-3.12s1.21-0.798 3.049-0.798h332.897c4.85 0 8.793 3.946 8.793 8.793v185.824c0 7.098-4.899 17.776-10.27 22.401l-58.996 50.837c-10.263 8.846-14.434 24.328-9.5 35.249 3.271 7.228 9.911 11.543 17.772 11.543 5.413 0 10.784-2.033 15.546-5.877l45.455-36.684v137.309c0 14.543 11.828 26.379 26.379 26.379h95.561c14.543 0 26.379-11.835 26.379-26.379v-75.094c0-1.737 0.412-2.571 0.556-2.726 0.383 0.074 1.21 0.144 2.543 0.798l58.177 28.644c3.725 1.832 7.84 2.8 11.913 2.8 9.925 0 18.574-5.413 22.573-14.132 5.715-12.447-0.074-27.835-12.915-34.303l-71.978-36.234c-5.687-2.863-10.868-11.269-10.868-17.638v-48.575c0-1.709 0.397-2.546 0.535-2.701 0.302 0.106 1.118 0.179 2.458 0.848l128.608 64.388c3.742 1.875 7.899 2.866 12.008 2.866 9.88 0 18.472-5.416 22.436-14.139 5.652-12.458-0.151-27.863-12.95-34.338l-142.229-71.996c-5.687-2.881-10.868-11.308-10.868-17.684v-131.393c0-4.847 3.943-8.793 8.793-8.793h369.155c1.836 0 2.845 0.492 3.042 0.798 0.208 0.313 0.26 1.431-0.461 3.123z" />
<glyph unicode="&#xe94d;" glyph-name="foursquare-1" d="M865.034 930.273c-18.152 27.088-53.586 30.092-83.292 29.693-179.019-0.806-358.106-0.341-537.207-0.201-10.278-0.317-20.538-0.857-30.665-2.836-32.864-5.461-59.904-33.068-65.676-65.666-5.274-32.14-2.236-64.939-2.639-97.348-0.068-262.967 0.201-525.94-0.201-788.907 0.741-16.22 1.328-33.922 11.387-47.592 15.855-21.661 47.978-27.068 71.421-15.415 14.128 7.694 24.586 20.221 35.113 32.007 76.933 90.819 156.921 179.067 233.701 270.039 8.479 9.619 18.418 20.152 32.481 19.36 55.381 2.84 110.899-1.86 166.352 0.993 18.828 0.986 38.441 6.366 52.094 20.067 18.606 18.285 24.385 44.855 30.28 69.308 31.468 152.535 59.965 305.708 91.552 458.24 7.424 38.492 18.425 82.947-4.7 118.258zM726.893 683.209c-4.57-15.128-24.252-14.107-37.499-15.179-66.587-1.328-133.188 1.601-199.707-0.321-20.34 0.792-42.339-11.988-43.599-34.055-4.314-27.508-2.567-69.96 31.942-76.008 65.191-7.287 131.256 2.4 196.516-3.912 21.729-0.652 22.132-26.3 18.739-42.134-7.472-38.339-13.165-77.298-24.368-114.835-2.854-12.428-14.66-18.947-26.767-19.046-54.999-4.601-110.333 1.901-165.315-2.014-22.542-0.321-35.973-20.541-49.306-35.721-55.453-68.168-111.241-136.015-168.489-202.68-2.249 214.467 0.205 429.018-1.256 643.553 0.468 16.039-0.341 32.799 5.553 48.046 8.434 17.753 30.621 17.299 47.326 18.227 130.587-0.14 261.239-0.474 391.84 0.133 21.661-0.666 44.448 2.932 50.094-16.36 7.475-25.535-15.555-114.084-25.706-147.695z" />
<glyph unicode="&#xe94e;" glyph-name="foursquare" d="M986.047 363.091c46.681 46.732 46.681 123.038 0 169.822l-1.874 1.888-411.031-411.28c-4.485-4.448-9.359-8.383-14.527-11.797-8.015-5.294-16.773-9.264-25.979-11.879-8.281-2.348-16.927-3.605-25.774-3.611l-8.513 0.044c-4.28 0.386-8.54 1.079-12.739 2.058-7.919 1.843-15.64 4.758-22.955 8.701-7.742 4.181-15.015 9.51-21.552 16.050-0.126 0.13-0.259 0.276-0.386 0.416-0.119 0.109-0.246 0.218-0.358 0.335l-270.462 270.957c-17.726 17.76-27.532 41.175-27.532 66.274 0 25.020 9.807 48.555 27.532 66.236l80.013 79.893c17.408 17.377 41.469 27.239 66.233 27.324 24.655 0 48.808-10.066 66.1-27.556l124.701-124.899 264.908 265.116-176.369 176.365c-46.695 46.623-123.12 46.623-169.856 0.003l-390.605-390.639c-46.695-46.661-46.702-123.089 0-169.822l390.684-390.636c46.654-46.62 123.083-46.62 169.774-0.003l390.568 390.639zM387.226 515.211l-25.348 25.348c-0.007 0.003-0.007 0.014-0.020 0.024l-23.972 23.972c-13.141 13.141-34.373 13.223-47.634 0.28l-0.027 0.014-79.893-79.627c-13.199-13.145-13.261-33.905-0.072-47.053l273.404-273.073c13.268-13.258 34.967-13.251 48.241-0.003 0.014 0.010 0.020 0.020 0.027 0.031l482.241 482.776c12.961 13.002 13.135 35.926 0.328 49.118-0.099 0.106-0.188 0.218-0.287 0.321l-39.674 40.646-40.653 39.677c-11.466 11.448-30.608 12.831-44.002 4.301-1.946-1.236-3.772-2.683-5.434-4.338l-380.164-379.758-23.46 23.457-93.601 93.888z" />
<glyph unicode="&#xe94f;" glyph-name="google-plus" d="M999.619 514.992h-64.336v64.34c0 13.468-10.913 24.381-24.381 24.381h-86.851c-13.468 0-24.381-10.913-24.381-24.381v-64.34h-64.336c-13.468 0-24.381-10.913-24.381-24.381v-86.851c0-13.468 10.913-24.381 24.381-24.381h64.336v-64.34c0-13.465 10.913-24.381 24.381-24.381h86.851c13.468 0 24.381 10.916 24.381 24.381v64.34h64.336c13.468 0 24.381 10.913 24.381 24.381v86.851c0 13.468-10.913 24.381-24.381 24.381zM331.275 621.397c29.543 0 57.939-7.964 82.161-23.038l27.674-18.936c9.645-6.599 22.619-5.432 30.928 2.799l80.711 79.957c5.166 5.117 7.776 12.268 7.122 19.508-0.65 7.24-4.499 13.809-10.494 17.922l-46.909 32.17c-0.956 0.653-1.96 1.242-2.997 1.752l-45.443 22.437c-0.601 0.299-1.216 0.572-1.84 0.819-39.146 15.454-80.389 23.292-122.581 23.292-86.981 0-169.028-33.386-231.027-93.997-62.958-61.551-97.969-145.249-98.574-235.679-0.608-90.45 33.285-174.633 95.427-237.035 61.661-61.924 149.143-97.443 240.019-97.443 89.91 0 174.269 34.91 231.44 95.778 45.287 48.213 73.078 112.611 80.382 186.231 0.068 0.699 0.111 1.398 0.117 2.097l0.845 66.137c0.020 1.369-0.078 2.734-0.293 4.086l-3.543 22.603c-1.856 11.862-12.080 20.607-24.085 20.607h-281.753c-13.468 0-24.381-10.916-24.381-24.381v-97.465c0-13.465 10.913-24.381 24.381-24.381h143.64c-6.583-14.43-16.956-29.647-30.073-43.827-28.61-30.941-71.277-48.687-117.061-48.687-46.756 0-91.533 18.321-122.847 50.264-65.185 66.472-64.437 182.295 1.59 247.857 31.084 30.853 73.9 48.554 117.464 48.554z" />
<glyph unicode="&#xe950;" glyph-name="grooveshark" d="M512 960c-282.692 0-512-229.246-512-511.98 0-282.737 229.308-512.020 512-512.020 282.72 0 512 229.284 512 512.020 0 282.733-229.28 511.98-512 511.98zM342.583 744.54c-3.222 0.884-12.056 4.915-14.63 0.884l-0.041-9.871c0.693-5.987 1.399-11.94 2.113-17.93 8.619-71.499 11.902-146.958-10.295-216.385-11.899-37.4-33.652-71.574-62.628-98.072-23.962-21.961-58.252-44.192-92.273-42.547-6.339 0.195-12.595 1.27-18.821 3.42-36.461 12.247-38.588 51.647-38.758 83.982-0.328 34.789 3.932 69.502 12.534 103.216 2.594 10.445 5.84 20.582 9.332 30.795 39.844 115.47 131.942 209.507 247.699 250.522 43.336 15.36 89.228 23.078 135.185 23.078 135.4 0 264.113-69.581 338.514-182.63 18.623-28.337 33.56-59.020 44.506-91.044h-0.154c3.512-10.175 6.772-20.275 9.462-30.72 8.547-33.751 12.752-68.468 12.52-103.257-0.519-65.546-21.559-137.701-103.66-103.062-38.881 16.357-71.267 49.691-95.362 83.364-27.764 38.748-56.105 76.762-87.091 112.896-29.222 33.867-60.215 66.277-94 95.689-33.563 29.3-70.12 57.18-110.513 76.53-26.962 13.097-54.804 22.89-83.64 31.143z" />
<glyph unicode="&#xe951;" glyph-name="html5" d="M76.478 960c-9.411 0-16.424-7.669-15.589-17.043l79.342-889.956c0.835-9.374 8.936-19.103 18.008-21.622l336.688-93.483c9.069-2.519 23.908-2.519 32.981-0.007l337.711 93.637c9.069 2.515 17.18 12.245 18.015 21.615l79.472 889.815c0.842 9.374-6.177 17.043-15.589 17.043h-871.041zM794.139 755.891c-0.749-8.361-2.047-22.875-2.882-32.248l-2.091-23.35c-0.842-9.37-2.040-22.772-2.673-29.777-0.63-7.009-1.229-12.741-1.338-12.741-0.106 0-7.895 0-17.307 0h-238.739c-9.411 0-17.19 0-17.293 0s-7.888 0-17.3 0h-125.735c-9.411 0-16.424-7.669-15.589-17.043l7.334-81.981c0.835-9.37 9.223-17.043 18.634-17.043h115.358c9.411 0 17.197 0 17.3 0s7.882 0 17.293 0h198.284c9.411 0 23.977 0 32.365 0 8.381 0 14.623-6.841 13.864-15.202-0.763-8.361-2.067-22.878-2.902-32.248l-23.583-264.296c-0.842-9.374-1.906-21.348-2.365-26.612-0.469-5.26-8.268-11.622-17.337-14.137l-198.948-55.164c-9.069-2.512-16.605-4.593-16.745-4.624s-7.673 2.005-16.745 4.521l-199.16 55.263c-9.069 2.515-17.173 12.245-18.008 21.619l-12.82 143.89c-0.835 9.374 6.184 17.043 15.595 17.043h18.176c9.411 0 24.812 0 34.223 0h27.105c9.411 0 17.792-7.669 18.634-17.043l5.027-56.327c0.835-9.374 8.949-19.048 18.039-21.502l93.158-25.157c9.083-2.454 16.55-4.463 16.591-4.463s7.505 2.012 16.591 4.466l93.326 25.219c9.083 2.454 17.204 12.132 18.046 21.502l10.12 112.853c0.842 9.374-6.17 17.043-15.582 17.043h-104.948c-9.411 0-17.19 0-17.293 0s-7.888 0-17.3 0h-218.989c-9.411 0-17.792 7.673-18.628 17.043l-24.832 278.253c-0.835 9.374-2.132 23.884-2.882 32.248-0.743 8.361 6.345 15.202 15.756 15.202h249.574c9.411 0 17.197 0 17.3 0s7.882 0 17.293 0h249.273c9.408 0 16.499-6.841 15.753-15.205z" />
<glyph unicode="&#xe952;" glyph-name="instagram" d="M131.482 959.959h761.098c72.308 0 131.42-59.133 131.42-131.441v-761.098c0-72.288-59.112-131.379-131.42-131.379h-761.098c-72.308 0-131.482 59.095-131.482 131.379v761.098c0 72.308 59.174 131.441 131.482 131.441zM745.97 846.237c-25.388 0-46.097-20.791-46.097-46.165v-110.298c0-25.385 20.709-46.128 46.097-46.128h115.722c25.347 0 46.1 20.743 46.1 46.128v110.298c0 25.375-20.753 46.165-46.1 46.165h-115.722zM908.233 526.957h-90.098c8.544-27.904 13.175-57.33 13.175-87.924 0-170.264-142.561-308.361-318.348-308.361-175.742 0-318.307 138.097-318.307 308.361 0 30.594 4.676 60.020 13.179 87.924h-94v-432.579c0-22.402 18.292-40.625 40.673-40.625h713.069c22.402 0 40.656 18.224 40.656 40.625v432.579zM512.966 649.462c-113.527 0-205.619-89.184-205.619-199.298 0-110.001 92.092-199.253 205.619-199.253 113.589 0 205.684 89.252 205.684 199.253 0 110.118-92.095 199.298-205.684 199.298z" />
<glyph unicode="&#xe953;" glyph-name="addthis" d="M1007.484 604.53h-338.947v338.954c0 9.12-7.393 16.516-16.516 16.516h-280.034c-9.124 0-16.516-7.396-16.516-16.516v-338.954h-338.954c-9.124 0-16.516-7.396-16.516-16.516v-280.034c0-9.12 7.393-16.516 16.516-16.516h338.951v-338.947c0-9.12 7.393-16.516 16.516-16.516h280.034c9.124 0 16.516 7.396 16.516 16.516v338.947h338.951c9.124 0 16.516 7.396 16.516 16.516v280.034c0 9.12-7.393 16.516-16.516 16.516z" />
<glyph unicode="&#xe954;" glyph-name="amazon" d="M1014.618 226.523c-16.182 19.853-64.001 22.001-83.808 22.001-17.71 0-44.62-1.736-72.522-10.1-18.12-5.682-34.224-13.595-49.022-24.030-13.829-9.531-20.009-24.534-15.747-38.226 3.985-12.802 15.9-21.068 30.349-21.068 1.030 0 2.107 0.042 3.215 0.13 0.943 0.075 1.882 0.208 2.809 0.393 3.621 0.725 7.896 1.313 12.698 1.879-102.107-38.096-212.487-58.183-320.228-58.183-164.909 0-331.801 44.415-469.936 125.064-0.195 0.111-0.39 0.224-0.588 0.332-6.050 3.313-12.369 4.99-18.773 4.99-14.307 0-26.556-8.462-31.211-21.556-4.73-13.312-0.257-28.145 11.397-38.005 135.46-122.977 312.371-190.704 498.202-190.704 127.102 0 264.025 36.682 366.328 98.135 12.74 7.305 24.719 15.028 35.72 23.022-3.855-10.581-8.605-22.869-14.433-37.143-0.042-0.104-0.085-0.211-0.127-0.322-4.246-10.828-3.29-22.008 2.62-30.671 5.572-8.169 15.022-13.049 25.272-13.049 8.185 0 16.329 2.952 23.558 8.533 0.283 0.221 0.562 0.449 0.839 0.679 51.431 43.486 71.69 119.070 72.756 159.262 0.007 0.215 0.010 0.432 0.010 0.647v5.916c0 11.56-2.913 22.557-7.987 30.18-0.426 0.653-0.894 1.284-1.388 1.892zM772.682 677.448c0.442 63.631 0.894 129.43-53.329 180.061-60.035 54.795-148.668 59.057-174.401 59.057h-21.777c-0.471 0-0.939-0.016-1.411-0.046-128.796-7.454-214.36-72.759-234.859-179.199-3.316-14.216 0.546-24.719 4.415-31.068 5.887-9.655 16.007-16.592 28.493-19.544 0.835-0.198 1.677-0.348 2.526-0.458l101.483-12.909c2.458-0.315 4.948-0.247 7.383 0.189 19.43 3.488 33.499 18.061 37.722 39.026 7.883 33.815 37.647 42.315 55.527 44.311h5.981c15.522 0 30.697-6.622 37.933-16.52 8.65-13.549 8.68-34.335 8.566-54.577-18-1.44-37.495-3.17-57.041-5.754-42.345-5.481-86.731-13.023-124.603-30.895-80.762-33.067-127.057-103.44-127.057-193.194 0-57.555 18.282-105.53 52.871-138.734 32.287-30.993 76.406-47.374 127.593-47.374 28.509 0 54.025 3.098 80.311 9.752 0.452 0.114 0.897 0.241 1.339 0.38 31.107 9.801 58.303 26.107 87.498 52.946 10.77-15.051 22.151-28.951 47.474-50.238 1.999-1.681 4.259-3.030 6.687-3.995 17.73-7.044 35.7-5.097 49.155 5.126 0.293 0.221 0.582 0.452 0.865 0.686 22.547 18.793 60.003 50.972 80.203 69.251 16.748 14.040 19.492 36.753 6.94 58.095-0.549 0.933-1.161 1.833-1.83 2.685l-3.927 4.977c-17.883 22.596-30.804 38.922-30.804 76.348v163.612c-0.007 6.053 0.033 12.054 0.075 18.003zM560.305 459.392c-0.309-0.514-0.595-1.040-0.861-1.573-8.589-17.161-23.107-29.468-40.037-34.026-2.389-0.234-4.574-0.65-6.576-1.030-1.372-0.263-3.443-0.657-4.194-0.657-35.359 0-39.175 36.341-39.175 51.961 0 39.351 18.474 62.37 59.886 74.557 13.393 3.078 29.277 5.091 47.422 6.020l0.010-5.734c0.107-35.742 0.185-61.57-16.475-89.517z" />
<glyph unicode="&#xe955;" glyph-name="bebo" d="M610.022-54.781c-100.287-15.384-201.13-15.384-295.099 30.406-161.211 78.588-246.718 207.905-250.452 388.313-1.618 79.913-0.3 159.829-0.3 239.741 0.055 90.764 0 181.527 0.055 272.284 0 33.966 14.827 59.535 45.175 74.714 30.256 15.141 59.993 11.465 87.105-8.339 21.733-15.998 30.652-38.557 30.604-65.457-0.157-169.56-0.109-339.059-0.051-508.616 0-134.246 85.814-240.81 218.046-262.457 82.152-13.397 164.106-9.373 237.141 39.881 88.221 59.491 131.614 168.482 108.032 272.591-23.634 104.164-109.725 184.429-215.142 198.276-29.286 3.878-59.132 3.011-88.777 3.366-46.602 0.614-82.712 32.44-85.412 76.196-2.86 45.687 27.911 82.159 75.847 86.49 253.487 22.709 432.819-140.987 474.892-338.506 48.38-227.665-111.704-463.587-341.663-498.884v0z" />
<glyph unicode="&#xe956;" glyph-name="behance" d="M791.86 621.947c-130.501 0-192.455-69.158-221.448-127.175-19.372-38.77-26.715-77.24-29.496-101.17-5.883 23.197-16.426 48.415-35.256 68.319-9.44 9.978-20.208 17.889-32.24 23.712 26.827 18.001 53.244 51.285 53.244 112.559 0 56.772-19.435 103.624-56.2 135.492-33.661 29.172-80.071 44.594-134.22 44.594h-319.729c-9.123 0-16.515-7.395-16.515-16.515v-614.493c0-9.12 7.392-16.515 16.515-16.515h319.553c0.396-0.007 1.182-0.023 2.322-0.023 0.003 0 0 0 0.003 0 14.117 0 63.909 1.912 111.991 26.513 39.702 20.307 86.158 60.864 95.813 140.492 7.736-34.064 23.517-74.545 55.441-108.751 43.943-47.084 107.799-70.998 189.799-71.080 1.182-0.056 4.238-0.175 8.829-0.175 20.703 0 74.106 2.487 122.676 25.529 62.582 29.69 95.664 83.156 95.664 154.619 0 9.123-7.392 16.515-16.515 16.515h-108.12c-4.532 0-8.872-1.751-11.99-5.040s-4.753-7.607-4.512-12.132c0.017-0.611 0.231-15.147-12.218-27.913-13.423-13.767-37.561-21.043-69.795-21.043-0.327 0-0.717-0.013-1.044-0.033-0.215-0.013-1.182-0.059-2.748-0.059-6.745 0-30.341 0.951-50.939 13.199-20.66 12.287-32.736 32.709-36.016 60.834h301.034c8.294 0 15.303 6.15 16.376 14.375 0.704 5.397 16.409 133.104-56.917 216.629-40.049 45.611-98.369 68.738-173.344 68.738zM707.535 437.204c8.763 23.844 31.398 61.696 86.733 61.696 23.336 0 41.707-6.57 54.595-19.527 12.753-12.822 18.302-29.809 20.713-42.169h-162.041zM173.945 404.174h162.391c4.938-0.036 48.237-2.256 48.237-67.863 0-42.909-17.727-62.449-57.478-63.341h-153.149v131.204zM325.152 531.963h-151.207v104.11l161.972 0.007c4.555-0.195 27.279-3.399 27.279-47.444 0-56.673-20.211-56.673-38.044-56.673zM659.625 643.343h253.547c9.123 0 16.515 7.395 16.515 16.515v75.648c0 9.12-7.392 16.515-16.515 16.515h-253.547c-9.123 0-16.515-7.395-16.515-16.515v-75.648c0-9.12 7.395-16.515 16.515-16.515z" />
<glyph unicode="&#xe957;" glyph-name="bing" d="M925.563 519.987c0 9.476-7.412 19.504-16.472 22.285l-487.022 149.165c-9.063 2.774-13.226-1.999-9.249-10.6l90.618-196.763c3.966-8.601 14.28-18.839 22.912-22.743l124.243-56.279c8.636-3.897 8.842-10.7 0.458-15.117l-530.152-278.918c-8.387-4.414-9.466-2.853-2.395 3.453l203.683 181.422c7.075 6.306 12.86 19.215 12.86 28.691l0.145 550.004c-0.007 9.476-7.423 19.511-16.482 22.292l-203.821 62.406c-9.063 2.767-16.479-2.726-16.479-12.202v-834.397c0-9.476 6.351-21.678 14.111-27.116l207.122-145.153c7.76-5.438 20.769-5.924 28.911-1.072l562.226 334.942c8.139 4.852 14.804 16.572 14.804 26.048l-0.024 219.655z" />
<glyph unicode="&#xe958;" glyph-name="blogger" d="M1021.3 527.753c0 25.228-20.453 45.677-45.681 45.677v0.003l-45.92-0.003c-29.338-0.038-59.529 0.986-72.359 12.623-18.135 16.766-20.866 46.872-26.348 87.586-10.26 79.032-16.759 83.139-29.082 109.824-44.817 95.113-166.27 166.618-249.75 176.538h-226.147c-177.913 0-323.314-145.746-323.314-323.656v-377.371c0-177.565 145.401-322.973 323.314-322.973h371.552c177.906 0 322.287 145.408 323.314 322.976 0 0 0.42 268.107 0.42 268.776zM330.121 695.535h179.272c34.212 0 61.928-27.716 61.928-61.583 0-33.874-27.713-61.928-61.928-61.928h-179.272c-34.219 0-61.935 28.051-61.935 61.928 0 33.867 27.713 61.583 61.935 61.583zM694.487 202.179h-364.367c-34.219 0-61.935 28.054-61.935 61.58 0 33.874 27.713 61.587 61.935 61.587h364.367c33.874 0 61.587-27.713 61.587-61.587 0-33.522-27.713-61.58-61.587-61.58z" />
<glyph unicode="&#xe959;" glyph-name="delicious" d="M1003.015 960h-982.036c-11.585 0-20.978-9.393-20.978-20.982v-982.036c0-11.588 9.393-20.982 20.978-20.982h982.036c11.592 0 20.985 9.393 20.985 20.982v982.036c0 11.588-9.393 20.982-20.985 20.982zM476.648 857.641c9.387 0 17.067-7.68 17.067-17.067v-357.219c0-9.387-7.68-17.067-17.067-17.067h-357.222c-9.387 0-17.067 7.68-17.067 17.067v357.219c0 9.387 7.68 17.067 17.067 17.067h357.222zM547.348 38.356c-9.387 0-17.067 7.68-17.067 17.067v357.226c0 9.387 7.68 17.067 17.067 17.067h357.222c9.387 0 17.067-7.68 17.067-17.067v-357.222c0-9.387-7.68-17.067-17.067-17.067h-357.222z" />
<glyph unicode="&#xe95a;" glyph-name="deviantart" d="M359.188 320.867v169.247c-115.951-32.133-158.768-102.192-171.332-169.247h171.332zM496.729 676.086v-91.675c5.038 0.055 10.199 0.113 15.271 0.113 141.397 0 269.411-35.055 362.069-91.733 92.587-56.702 149.931-135.083 149.931-221.583 0-17.459-2.338-34.594-6.83-51.292h-489.813v257.488c56.061-1.055 101.192-7.953 137.527-18.947v-137.588h171.302c-17.026 90.853-89.655 187.221-324.127 187.221-5.127 0-10.291-0.061-15.288-0.126v-287.976h-489.96c-4.454 16.701-6.81 33.833-6.81 51.296 0 86.467 57.344 164.806 149.965 221.512 57.76 35.372 129.246 62.28 209.227 77.541v93.181c44.319 7.554 90.412 11.865 137.537 12.571z" />
<glyph unicode="&#xe95b;" glyph-name="digg" d="M392.536 755.199h-68.305c-9.387 0-17.067-7.68-17.067-17.067v-68.308c0-9.387 7.68-17.067 17.067-17.067h68.305c9.387 0 17.067 7.68 17.067 17.067v68.308c0 9.387-7.68 17.067-17.067 17.067zM392.536 611.885h-68.305c-9.387 0-17.067-7.68-17.067-17.067v-314.039c0-9.387 7.68-17.067 17.067-17.067h68.305c9.387 0 17.067 7.68 17.067 17.067v314.039c0 9.387-7.68 17.067-17.067 17.067zM1006.933 611.885h-232.088c-9.387 0-17.067-7.68-17.067-17.067v-314.111c0-9.387 7.68-17.067 17.067-17.067h129.721c9.387 0 17.067-7.68 17.067-17.067v-6.83c0-9.387-7.68-17.067-17.067-17.067h-129.721c-9.387 0-17.067-7.68-17.067-17.067v-47.739c0-9.387 7.68-17.067 17.067-17.067h232.088c9.387 0 17.067 7.68 17.067 17.067v436.947c0 9.387-7.68 17.067-17.067 17.067zM921.633 362.663c0-9.387-7.68-17.067-17.067-17.067h-27.28c-9.383 0-17.067 7.68-17.067 17.067v150.194c0 9.387 7.683 17.067 17.067 17.067h27.28c9.387 0 17.067-7.68 17.067-17.067v-150.194zM249.155 755.199h-68.233c-9.387 0-17.067-7.68-17.067-17.067v-109.18c0-9.387-7.68-17.067-17.067-17.067h-129.721c-9.387 0-17.067-7.68-17.067-17.067v-314.039c0-9.387 7.68-17.067 17.067-17.067h232.088c9.387 0 17.067 7.68 17.067 17.067v457.352c0 9.387-7.68 17.067-17.067 17.067zM163.855 362.663c0-9.387-7.68-17.067-17.067-17.067h-27.286c-9.387 0-17.067 7.68-17.067 17.067v150.194c0 9.387 7.68 17.067 17.067 17.067h27.286c9.387 0 17.067-7.68 17.067-17.067v-150.194zM699.769 611.885h-232.159c-9.387 0-17.067-7.68-17.067-17.067v-314.111c0-9.387 7.68-17.067 17.067-17.067h129.728c9.387 0 17.067-7.68 17.067-17.067v-6.83c0-9.387-7.68-17.067-17.067-17.067h-129.728c-9.387 0-17.067-7.68-17.067-17.067v-47.739c0-9.387 7.68-17.067 17.067-17.067h232.159c9.387 0 17.067 7.68 17.067 17.067v436.947c0 9.387-7.68 17.067-17.067 17.067zM614.404 362.663c0-9.387-7.68-17.067-17.067-17.067h-27.293c-9.387 0-17.067 7.68-17.067 17.067v150.194c0 9.387 7.68 17.067 17.067 17.067h27.293c9.387 0 17.067-7.68 17.067-17.067v-150.194z" />
<glyph unicode="&#xe95c;" glyph-name="dribble" d="M511.998-64c282.314 0 511.992 229.694 511.992 512.024 0 282.304-229.678 511.976-511.992 511.976s-511.992-229.671-511.992-511.976c0-282.33 229.681-512.024 511.992-512.024zM511.998 55.253c-81.103 0-158.119 24.283-224.009 70.44 26.871 44.577 108.546 156.279 283.494 223.014 44.1-119.559 66.559-221.584 75.674-269.441-43.154-15.945-88.524-24.013-135.159-24.013zM761.399 145.049c-9.899 48.361-29.871 133.456-64.54 233.715 17.531 1.746 35.485 2.627 53.689 2.627 63.542 0 116.562-10.63 144.557-17.616-18.698-85.436-66.107-162.778-133.706-218.726zM833.373 671.731c39.34-56.322 63.331-122.449 69.277-190.89-36.077 5.923-97.883 13.936-168.232 13.936-27.878 0-54.869-1.281-80.495-3.81-0.673 1.606-1.352 3.218-2.038 4.837-5.347 12.502-11.085 25.33-17.135 38.333 104.528 46.889 167.868 104.316 198.624 137.594zM511.998 839.501c88.030 0 173.122-29.631 242.073-83.889-23.773-26.578-77.946-77.179-173.294-116.588-47.536 85.010-96.316 157.082-124.208 196.556 18.289 2.607 36.828 3.92 55.428 3.92zM327.252 793.149c23.002-32.394 73.74-105.929 124.962-193.985-137.776-33.219-258.84-40.429-316.629-41.834 29.455 100.354 98.972 186.069 191.667 235.819zM511.072 490.317c4.463-9.021 8.741-17.912 12.837-26.637-174.028-59.81-282.067-193.198-323.823-253.652-49.587 65.015-77.611 143.722-80.050 225.647 60.591 0.634 222.143 7.184 391.035 54.642z" />
<glyph unicode="&#xe95d;" glyph-name="dropbox" d="M293.971 161.519c-5.938 0-11.54 1.327-16.183 3.842l-71.063 38.428c-1.073 0.582-1.792 0.755-2.17 0.808-0.138-0.367-0.328-1.083-0.328-2.293v-22.086c0-6.654 5.162-15.891 10.824-19.376l275.389-169.581v320.629l-173.713-142.771c-5.871-4.833-14.165-7.6-22.756-7.6zM298.614 209.152v0c4.114 0 8.213 1.344 10.704 3.503l149.792 130c1.341 1.164 2.060 2.42 1.976 3.447-0.088 1.034-1.009 2.149-2.526 3.073l-267.507 162.402c-2.036 1.238-4.798 1.919-7.779 1.919-4.064 0-7.981-1.256-10.464-3.366l-155.942-132.367c-1.298-1.104-2.029-2.3-1.951-3.204 0.081-0.903 1.002-1.958 2.473-2.822l273.649-160.764c1.993-1.175 4.682-1.82 7.575-1.82zM185.087 574.891c3.091 0 5.948 0.706 8.041 1.986l286.481 175.11c1.464 0.896 2.378 1.986 2.445 2.921 0.067 0.938-0.681 2.145-2 3.246l-172.492 143.315c-2.466 2.046-6.336 3.274-10.355 3.274-3.052 0-5.881-0.709-7.956-1.993l-286.82-177.085c-1.457-0.896-2.364-1.986-2.427-2.907-0.064-0.924 0.692-2.124 2.018-3.207l172.601-141.395c2.494-2.043 6.411-3.263 10.464-3.263zM1021.573 725.629l-286.774 177.054c-2.078 1.281-4.908 1.986-7.963 1.986-4.011 0-7.878-1.224-10.351-3.271l-172.485-143.255c-1.323-1.097-2.071-2.307-2-3.239 0.071-0.935 0.981-2.025 2.445-2.921l286.477-175.11c2.099-1.281 4.953-1.986 8.044-1.986 4.054 0 7.966 1.224 10.461 3.263l172.552 141.364c1.323 1.083 2.078 2.279 2.015 3.204-0.056 0.928-0.963 2.015-2.42 2.911zM1007.189 377.756l-155.98 132.374c-2.484 2.11-6.393 3.366-10.461 3.366-2.981 0-5.747-0.681-7.786-1.919l-267.486-162.402c-1.517-0.924-2.434-2.039-2.523-3.066s0.632-2.283 1.972-3.443l149.873-130.010c2.491-2.156 6.59-3.5 10.704-3.5 2.89 0 5.585 0.649 7.582 1.82l273.579 160.761c1.471 0.868 2.396 1.923 2.47 2.822 0.085 0.896-0.646 2.092-1.944 3.196zM817.279 203.789l-70.996-38.424c-4.646-2.516-10.246-3.846-16.187-3.846-8.591 0-16.882 2.762-22.753 7.589l-173.73 142.775v-318.788c0-0.677 0.060-1.214 0.134-1.609 0.363 0.138 0.843 0.363 1.436 0.73l273.766 168.618c5.666 3.489 10.828 12.726 10.828 19.38v22.086c0 1.207-0.187 1.919-0.325 2.283-0.416-0.049-1.129-0.233-2.173-0.794z" />
<glyph unicode="&#xe95e;" glyph-name="share" d="M230.4 294.4c41.4 0 78.909 16.456 106.527 43.090l304.353-152.177c-0.758-6.205-1.28-12.493-1.28-18.913 0-84.828 68.772-153.6 153.6-153.6s153.6 68.772 153.6 153.6c0 84.828-68.772 153.6-153.6 153.6-41.4 0-78.909-16.466-106.527-43.1l-304.353 152.187c0.758 6.205 1.28 12.493 1.28 18.913s-0.522 12.708-1.28 18.913l304.353 152.177c27.628-26.634 65.126-43.1 106.527-43.1 84.828 0 153.6 68.772 153.6 153.6s-68.772 153.6-153.6 153.6-153.6-68.772-153.6-153.6c0-6.42 0.522-12.708 1.28-18.924l-304.353-152.156c-27.617 26.634-65.126 43.090-106.527 43.090-84.828 0-153.6-68.772-153.6-153.6s68.772-153.6 153.6-153.6z" />
<glyph unicode="&#xe95f;" glyph-name="down-chevron" d="M25.259 623.787l488.107-477.184v245.077l-360.107 360.448-128-128.341zM1001.472 623.787l-128 128.341-360.107-360.448v-245.077l488.107 477.184z" />
<glyph unicode="&#xe960;" glyph-name="up-chevron" d="M25.259 274.944l488.107 477.184v-245.077l-360.107-360.448-128 128.341zM1001.472 274.944l-128-128.341-360.107 360.789v244.736l488.107-477.184z" />
<glyph unicode="&#xe961;" glyph-name="left-chevron" d="M690.517 960l-477.184-488.107h245.077l360.448 360.107-128.341 128zM690.517-16.213l128.341 128-360.448 360.107h-245.077l477.184-488.107z" />
<glyph unicode="&#xe962;" glyph-name="right-chevron" d="M341.655 960l477.133-488.108h-244.911l-360.543 359.984 128.322 128.123zM341.772-16.216l-128.322 128.123 360.543 359.984h244.911l-477.133-488.108z" />
<glyph unicode="&#xe963;" glyph-name="setting" d="M1008.026 512.205c-8.192 5.222-72.806 43.827-98.406 55.603l-31.744 76.8c9.421 25.395 27.546 96.563 30.72 108.954 0.532 2.261 0.838 4.856 0.838 7.524 0 9.463-3.843 18.028-10.053 24.22l-0.001 0.001-50.074 49.766c-6.164 6.222-14.71 10.074-24.155 10.074-2.691 0-5.309-0.313-7.819-0.904l0.23 0.046c-9.421-2.15-81.92-20.48-108.954-30.72l-76.8 31.744c-11.162 24.576-48.742 87.552-55.603 98.406-6.069 9.82-16.769 16.268-28.977 16.282h-70.453c-12.14-0.006-22.804-6.318-28.897-15.837l-0.082-0.137c-5.222-8.192-43.827-72.806-55.603-98.406l-76.8-31.744c-25.395 9.421-96.563 27.546-108.954 30.72-2.261 0.532-4.856 0.838-7.524 0.838-9.463 0-18.028-3.843-24.22-10.053l-0.001-0.001-49.766-50.074c-6.222-6.164-10.074-14.71-10.074-24.155 0-2.691 0.313-5.309 0.904-7.819l-0.046 0.23c2.15-9.421 20.48-81.92 30.72-108.954l-31.744-76.8c-24.576-11.162-87.552-48.742-98.406-55.603-9.82-6.069-16.268-16.769-16.282-28.977v-70.351c0.006-12.14 6.318-22.804 15.837-28.897l0.137-0.082c8.192-5.222 72.806-43.827 98.406-55.603l31.744-76.8c-9.421-25.395-27.546-96.563-30.72-108.954-0.532-2.261-0.838-4.856-0.838-7.524 0-9.463 3.843-18.028 10.053-24.22l49.767-49.767c6.164-6.222 14.71-10.074 24.155-10.074 2.691 0 5.309 0.313 7.819 0.904l-0.23-0.046c9.421 2.15 81.92 20.48 108.954 30.72l76.8-31.744c11.162-24.576 48.742-87.552 55.603-98.406 6.063-9.888 16.813-16.385 29.079-16.385 0.073 0 0.146 0 0.219 0.001h70.338c12.14 0.006 22.804 6.318 28.897 15.837l0.082 0.137c5.222 8.192 43.827 72.806 55.603 98.406l76.8 31.744c25.395-9.421 96.563-27.546 108.954-30.72 2.261-0.532 4.856-0.838 7.524-0.838 9.463 0 18.028 3.843 24.22 10.053l49.767 49.767c6.222 6.164 10.074 14.71 10.074 24.155 0 2.691-0.313 5.309-0.904 7.819l0.046-0.23c-2.15 9.421-20.48 81.92-30.72 108.954l31.744 76.8c24.576 11.162 87.552 48.742 98.406 55.603 9.888 6.063 16.385 16.813 16.385 29.079 0 0.073 0 0.146-0.001 0.219v-0.011 70.451c0.001 0.079 0.001 0.172 0.001 0.266 0 12.065-6.322 22.653-15.835 28.631l-0.141 0.082zM512 225.075c-123.143 0.117-222.925 99.97-222.925 223.13 0 123.231 99.899 223.13 223.13 223.13s223.13-99.899 223.13-223.13c0-0.072 0-0.144 0-0.216v0.011c-0.291-123.145-100.157-222.867-223.329-222.925h-0.006z" />
<glyph unicode="&#xe964;" glyph-name="loading" d="M946.897 477.37h-5.376l-142.964-0.419c-20.922-1.652-37.446-19.223-37.399-40.611 0-22.481 18.223-40.657 40.704-40.751h146.036c20.992 1.839 37.469 19.456 37.423 40.913-0.047 21.737-16.966 39.54-38.423 40.867zM749.312 604.044l0.093 0.093 98.025 97.815 5.167 5.26c13.545 16.035 12.637 40.192-2.49 55.319-15.383 15.313-39.983 15.965-56.134 1.745l-3.747-3.817-100.794-101.236c-13.615-15.988-12.893-40.006 2.257-55.156 15.895-15.895 41.705-15.895 57.623-0.023zM523.729 897.536c-21.783 0-39.633-16.966-40.983-38.353l0.023-5.399 0.396-136.169v-6.586c1.745-20.969 19.316-37.446 40.681-37.446 22.528 0 40.774 18.223 40.774 40.681v0.186l0.070 138.333v7.377c-1.862 20.992-19.526 37.376-40.96 37.376zM355.863 661.946l-103.145 103.052c-16.105 13.475-40.239 12.66-55.389-2.49-15.407-15.383-15.988-40.029-1.792-56.064l3.793-3.817 101.376-100.655c16.058-13.638 40.145-12.823 55.249 2.234 15.942 15.988 15.942 41.681 0.047 57.577l-0.14 0.163zM248.855 396.032c20.992 1.629 37.492 19.2 37.492 40.588-0.047 22.551-18.246 40.681-40.727 40.751h-146.083c-20.969-1.839-37.423-19.456-37.376-40.844 0-21.807 16.943-39.564 38.4-40.913h5.376l142.918 0.442zM298.124 268.986l-0.116-0.163-103.168-103.005c-13.498-16.105-12.66-40.239 2.49-55.319 15.43-15.36 39.983-16.012 56.134-1.839l3.793 3.84 100.794 101.213c13.615 16.012 12.87 40.122-2.257 55.18-15.988 15.895-41.728 15.895-57.67 0.093zM564.247 161.908c-1.676 20.945-19.293 37.446-40.657 37.446-22.551 0-40.774-18.223-40.774-40.681v-0.163l-0.070-138.356 0.023-7.377c1.862-20.899 19.479-37.353 40.96-37.353 21.783 0 39.564 16.989 40.96 38.353v5.399l-0.442 136.169v6.563zM848.105 170.31l-101.353 100.655c-16.035 13.638-40.145 12.893-55.273-2.257-15.919-15.895-15.942-41.658-0.023-57.577l0.14-0.163 97.862-97.839 5.26-5.12c16.151-13.568 40.262-12.73 55.389 2.397 15.407 15.453 15.988 40.006 1.839 56.087l-3.84 3.817z" />
<glyph unicode="&#xe965;" glyph-name="mail" d="M137.114 574.259v-331.981c0-28.672 23.45-52.019 52.019-52.019h645.837c28.57 0 52.019 23.347 52.019 52.019v328.192l-377.651-252.109-372.224 255.898zM834.867 705.741h-645.734c-28.57 0-52.019-23.45-52.019-52.122v-16.179l372.634-256.205 377.139 251.802v20.582c0 28.672-23.347 52.122-52.019 52.122z" />
<glyph unicode="&#xe966;" glyph-name="loading-1" d="M512.352 853.469c-210.326 0-405.821-181.193-405.821-405.469 0.401-20.379 1.718-40.193 4.227-57.773 7.565-49.549 34.437-61.155 56.716-59.183 11.33 1.004 21.503 6.269 28.182 14.796 6.353 8.111 10.29 19.355 7.75 35.932-0.532 2.296-0.728 4.856-1.056 7.045-3.68 19.001-6.341 38.792-6.341 59.182 0 174.349 142.032 315.639 316.343 315.639 173.942 0 315.639-141.29 315.639-315.639 0-173.979-141.659-315.639-315.639-315.639-39.245 0-76.449 7.010-110.614 19.727-56.148 23.763-92.715-52.178-35.58-82.433 44.502-21.033 102.032-26.806 146.194-27.125 223.881 0 405.116 181.193 405.116 405.469-3.85 235.032-205.002 402.143-405.116 405.47z" />
<glyph unicode="&#xe967;" glyph-name="gallery" d="M552.96 816.64h-368.64c-90.486 0-163.84-73.354-163.84-163.84v0-532.48c0-90.486 73.354-163.84 163.84-163.84v0h532.48c90.486 0 163.84 73.354 163.84 163.84v0 368.64c0 22.622-18.338 40.96-40.96 40.96s-40.96-18.338-40.96-40.96v0-187.802l-134.861 134.861c-7.414 7.422-17.66 12.013-28.979 12.013s-21.565-4.591-28.979-12.013v0l-93.901-93.901-134.861 134.861c-7.414 7.422-17.66 12.013-28.979 12.013s-21.565-4.591-28.979-12.013v0l-216.781-216.781v392.602c0 45.243 36.677 81.92 81.92 81.92v0h368.64c22.622 0 40.96 18.338 40.96 40.96s-18.338 40.96-40.96 40.96v0zM348.16 390.042l134.963-134.861c7.409-7.391 17.635-11.962 28.928-11.962s21.519 4.57 28.929 11.963l-0.001-0.001s0 0 0 0l93.901 93.901 163.84-163.84v-64.922c0-45.243-36.677-81.92-81.92-81.92v0h-532.48c-45.243 0-81.92 36.677-81.92 81.92v0 23.962zM962.56 816.64h-81.92v81.92c0 22.622-18.338 40.96-40.96 40.96s-40.96-18.338-40.96-40.96v0-81.92h-81.92c-22.622 0-40.96-18.338-40.96-40.96s18.338-40.96 40.96-40.96v0h81.92v-81.92c0-22.622 18.338-40.96 40.96-40.96s40.96 18.338 40.96 40.96v0 81.92h81.92c22.622 0 40.96 18.338 40.96 40.96s-18.338 40.96-40.96 40.96v0zM593.92 591.36c0-33.932-27.508-61.44-61.44-61.44s-61.44 27.508-61.44 61.44c0 33.932 27.508 61.44 61.44 61.44s61.44-27.508 61.44-61.44z" />
<glyph unicode="&#xe968;" glyph-name="close" d="M894.116 182.436l-265.513 265.564 265.513 265.544-116.552 116.562-265.533-265.533-265.533 265.533-116.562-116.562 265.544-265.544-265.595-265.564 116.552-116.552 265.595 265.574 265.533-265.574z" />
</font>
</defs>
</svg>
